999
dxfrw 0.5.10
0
SECTION
2
HEADER
9
$ACADVER
1
AC1021
9
$HANDSEED
5
20000
9
$DWGCODEPAGE
3
ANSI_1252
9
$INSBASE
10
0
20
0
30
0
9
$EXTMIN
10
-8.125
20
-12
30
0
9
$EXTMAX
10
53.500400127
20
74
30
0
9
$LIMMIN
10
0
20
0
9
$LIMMAX
10
420
20
297
9
$ORTHOMODE
70
0
9
$LTSCALE
40
1
9
$TEXTSTYLE
7
STANDARD
9
$CLAYER
8
Beschriftung
9
$DIMASZ
40
2.5
9
$DIMLFAC
40
1
9
$DIMSCALE
40
1
9
$DIMEXO
40
0.625
9
$DIMEXE
40
1.25
9
$DIMTXT
40
2.5
9
$DIMTSZ
40
0
9
$DIMAUNIT
70
0
9
$DIMADEC
70
0
9
$DIMLUNIT
70
2
9
$DIMSTYLE
2
STANDARD
9
$DIMGAP
40
0.625
9
$DIMTIH
70
0
9
$LUNITS
70
2
9
$LUPREC
70
4
9
$AUNITS
70
0
9
$AUPREC
70
2
9
$SPLINESEGS
70
8
9
$GRIDMODE
70
1
9
$SNAPSTYLE
70
0
9
$PINSBASE
10
0
20
0
30
0
9
$PLIMMIN
10
0
20
0
9
$PLIMMAX
10
297
20
420
9
$INSUNITS
70
4
9
$PSVPSCALE
40
1
0
ENDSEC
0
SECTION
2
CLASSES
0
ENDSEC
0
SECTION
2
TABLES
0
TABLE
2
VPORT
5
8
330
0
100
AcDbSymbolTable
70
1
0
VPORT
5
31
330
2
100
AcDbSymbolTableRecord
100
AcDbViewportTableRecord
2
*ACTIVE
70
0
10
0
20
0
11
1
21
1
12
45.4222672065
22
49.4330634278
13
0
23
0
14
10
24
10
15
10
25
10
16
0
26
0
36
1
17
0
27
0
37
0
40
148.198920378
41
1.22598105548
42
50
43
0
44
0
50
0
51
0
71
0
72
100
73
1
74
3
75
0
76
1
77
0
78
0
281
0
65
1
110
0
120
0
130
0
111
1
121
0
131
0
112
0
122
1
132
0
79
0
146
0
348
10020
60
7
61
5
292
1
282
1
141
0
142
0
63
250
421
3358443
0
ENDTAB
0
TABLE
2
LTYPE
5
5
330
0
100
AcDbSymbolTable
70
4
0
LTYPE
5
14
330
5
100
AcDbSymbolTableRecord
100
AcDbLinetypeTableRecord
2
ByBlock
70
0
3

72
65
73
0
40
0
0
LTYPE
5
15
330
5
100
AcDbSymbolTableRecord
100
AcDbLinetypeTableRecord
2
ByLayer
70
0
3

72
65
73
0
40
0
0
LTYPE
5
16
330
5
100
AcDbSymbolTableRecord
100
AcDbLinetypeTableRecord
2
Continuous
70
0
3
Solid line
72
65
73
0
40
0
0
LTYPE
5
32
330
5
100
AcDbSymbolTableRecord
100
AcDbLinetypeTableRecord
2
DOT
70
0
3
Dot . . . . . . . . . . . . . . . . . . . . . .
72
65
73
2
40
6.35
49
0
74
0
49
-6.35
74
0
0
LTYPE
5
33
330
5
100
AcDbSymbolTableRecord
100
AcDbLinetypeTableRecord
2
DOT2
70
0
3
Dot (.5x) .....................................
72
65
73
2
40
3.175
49
0
74
0
49
-3.175
74
0
0
LTYPE
5
34
330
5
100
AcDbSymbolTableRecord
100
AcDbLinetypeTableRecord
2
DOTX2
70
0
3
Dot (2x) .  .  .  .  .  .  .  .  .  .  .  .  .
72
65
73
2
40
12.7
49
0
74
0
49
-12.7
74
0
0
LTYPE
5
35
330
5
100
AcDbSymbolTableRecord
100
AcDbLinetypeTableRecord
2
DASHED
70
0
3
Dot . . . . . . . . . . . . . . . . . . . . . .
72
65
73
2
40
19.05
49
12.7
74
0
49
-6.35
74
0
0
LTYPE
5
36
330
5
100
AcDbSymbolTableRecord
100
AcDbLinetypeTableRecord
2
DASHED2
70
0
3
Dashed (.5x) _ _ _ _ _ _ _ _ _ _ _ _ _ _ _ _ _
72
65
73
2
40
9.525
49
6.35
74
0
49
-3.175
74
0
0
LTYPE
5
37
330
5
100
AcDbSymbolTableRecord
100
AcDbLinetypeTableRecord
2
DASHEDX2
70
0
3
Dashed (2x) ____  ____  ____  ____  ____  ___
72
65
73
2
40
38.1
49
25.4
74
0
49
-12.7
74
0
0
LTYPE
5
38
330
5
100
AcDbSymbolTableRecord
100
AcDbLinetypeTableRecord
2
DASHDOT
70
0
3
Dash dot __ . __ . __ . __ . __ . __ . __ . __
72
65
73
4
40
25.4
49
12.7
74
0
49
-6.35
74
0
49
0
74
0
49
-6.35
74
0
0
LTYPE
5
39
330
5
100
AcDbSymbolTableRecord
100
AcDbLinetypeTableRecord
2
DASHDOT2
70
0
3
Dash dot (.5x) _._._._._._._._._._._._._._._.
72
65
73
4
40
12.7
49
6.35
74
0
49
-3.175
74
0
49
0
74
0
49
-3.175
74
0
0
LTYPE
5
3A
330
5
100
AcDbSymbolTableRecord
100
AcDbLinetypeTableRecord
2
DASHDOTX2
70
0
3
Dash dot (2x) ____  .  ____  .  ____  .  ___
72
65
73
4
40
50.8
49
25.4
74
0
49
-12.7
74
0
49
0
74
0
49
-12.7
74
0
0
LTYPE
5
3B
330
5
100
AcDbSymbolTableRecord
100
AcDbLinetypeTableRecord
2
DIVIDE
70
0
3
Divide ____ . . ____ . . ____ . . ____ . . ____
72
65
73
6
40
31.75
49
12.7
74
0
49
-6.35
74
0
49
0
74
0
49
-6.35
74
0
49
0
74
0
49
-6.35
74
0
0
LTYPE
5
3C
330
5
100
AcDbSymbolTableRecord
100
AcDbLinetypeTableRecord
2
DIVIDE2
70
0
3
Divide (.5x) __..__..__..__..__..__..__..__.._
72
65
73
6
40
15.875
49
6.35
74
0
49
-3.175
74
0
49
0
74
0
49
-3.175
74
0
49
0
74
0
49
-3.175
74
0
0
LTYPE
5
3D
330
5
100
AcDbSymbolTableRecord
100
AcDbLinetypeTableRecord
2
DIVIDEX2
70
0
3
Divide (2x) ________  .  .  ________  .  .  _
72
65
73
6
40
63.5
49
25.4
74
0
49
-12.7
74
0
49
0
74
0
49
-12.7
74
0
49
0
74
0
49
-12.7
74
0
0
LTYPE
5
3E
330
5
100
AcDbSymbolTableRecord
100
AcDbLinetypeTableRecord
2
BORDER
70
0
3
Border __ __ . __ __ . __ __ . __ __ . __ __ .
72
65
73
6
40
44.45
49
12.7
74
0
49
-6.35
74
0
49
12.7
74
0
49
-6.35
74
0
49
0
74
0
49
-6.35
74
0
0
LTYPE
5
3F
330
5
100
AcDbSymbolTableRecord
100
AcDbLinetypeTableRecord
2
BORDER2
70
0
3
Border (.5x) __.__.__.__.__.__.__.__.__.__.__.
72
65
73
6
40
22.225
49
6.35
74
0
49
-3.175
74
0
49
6.35
74
0
49
-3.175
74
0
49
0
74
0
49
-3.175
74
0
0
LTYPE
5
40
330
5
100
AcDbSymbolTableRecord
100
AcDbLinetypeTableRecord
2
BORDERX2
70
0
3
Border (2x) ____  ____  .  ____  ____  .  ___
72
65
73
6
40
88.9
49
25.4
74
0
49
-12.7
74
0
49
25.4
74
0
49
-12.7
74
0
49
0
74
0
49
-12.7
74
0
0
LTYPE
5
41
330
5
100
AcDbSymbolTableRecord
100
AcDbLinetypeTableRecord
2
CENTER
70
0
3
Center ____ _ ____ _ ____ _ ____ _ ____ _ ____
72
65
73
4
40
50.8
49
31.75
74
0
49
-6.35
74
0
49
6.35
74
0
49
-6.35
74
0
0
LTYPE
5
42
330
5
100
AcDbSymbolTableRecord
100
AcDbLinetypeTableRecord
2
CENTER2
70
0
3
Center (.5x) ___ _ ___ _ ___ _ ___ _ ___ _ ___
72
65
73
4
40
28.575
49
19.05
74
0
49
-3.175
74
0
49
3.175
74
0
49
-3.175
74
0
0
LTYPE
5
43
330
5
100
AcDbSymbolTableRecord
100
AcDbLinetypeTableRecord
2
CENTERX2
70
0
3
Center (2x) ________  __  ________  __  _____
72
65
73
4
40
101.6
49
63.5
74
0
49
-12.7
74
0
49
12.7
74
0
49
-12.7
74
0
0
ENDTAB
0
TABLE
2
LAYER
5
2
330
0
100
AcDbSymbolTable
70
1
0
LAYER
5
10
330
2
100
AcDbSymbolTableRecord
100
AcDbLayerTableRecord
2
0
70
0
62
7
6
CONTINUOUS
370
0
390
F
0
LAYER
5
44
330
2
100
AcDbSymbolTableRecord
100
AcDbLayerTableRecord
2
Hilfslinien
70
0
62
96
420
32768
6
CONTINUOUS
370
0
390
F
0
LAYER
5
45
330
2
100
AcDbSymbolTableRecord
100
AcDbLayerTableRecord
2
Maße
70
0
62
5
6
CONTINUOUS
370
0
390
F
0
LAYER
5
46
330
2
100
AcDbSymbolTableRecord
100
AcDbLayerTableRecord
2
Beschriftung
70
0
62
1
6
CONTINUOUS
370
0
390
F
0
ENDTAB
0
TABLE
2
STYLE
5
3
330
0
100
AcDbSymbolTable
70
3
0
STYLE
5
47
330
2
100
AcDbSymbolTableRecord
100
AcDbTextStyleTableRecord
2
standard
70
0
40
0
41
1
50
0
71
0
42
1
3
standard
4

0
ENDTAB
0
TABLE
2
VIEW
5
6
330
0
100
AcDbSymbolTable
70
0
0
ENDTAB
0
TABLE
2
UCS
5
7
330
0
100
AcDbSymbolTable
70
0
0
ENDTAB
0
TABLE
2
APPID
5
9
330
0
100
AcDbSymbolTable
70
1
0
APPID
5
12
330
9
100
AcDbSymbolTableRecord
100
AcDbRegAppTableRecord
2
ACAD
70
0
0
ENDTAB
0
TABLE
2
DIMSTYLE
5
A
330
0
100
AcDbSymbolTable
70
1
100
AcDbDimStyleTable
71
1
0
DIMSTYLE
105
48
330
A
100
AcDbSymbolTableRecord
100
AcDbDimStyleTableRecord
2
Standard
70
0
40
1
41
2.5
42
0.625
43
0.38
44
1.25
45
0
46
0
47
0
48
0
140
2.5
141
0.09
142
0
143
25.4
144
1
145
0
146
1
147
0.625
148
0
71
0
72
0
73
0
74
1
75
0
76
0
77
0
78
0
79
0
170
0
171
2
172
0
173
0
174
0
175
0
176
0
177
0
178
0
179
0
271
4
272
4
273
2
274
2
275
0
276
0
277
2
278
46
279
0
280
0
281
0
282
0
283
1
284
0
285
0
286
0
288
0
289
3
340
Standard
341

371
-2
372
-2
0
ENDTAB
0
TABLE
2
BLOCK_RECORD
5
1
330
0
100
AcDbSymbolTable
70
2
0
BLOCK_RECORD
5
1F
330
1
100
AcDbSymbolTableRecord
100
AcDbBlockTableRecord
2
*Model_Space
70
0
280
1
281
0
0
BLOCK_RECORD
5
1E
330
1
100
AcDbSymbolTableRecord
100
AcDbBlockTableRecord
2
*Paper_Space
70
0
280
1
281
0
0
BLOCK_RECORD
5
49
330
1
100
AcDbSymbolTableRecord
100
AcDbBlockTableRecord
2
*D4
70
0
280
1
281
0
0
BLOCK_RECORD
5
4C
330
1
100
AcDbSymbolTableRecord
100
AcDbBlockTableRecord
2
*D6
70
0
280
1
281
0
0
BLOCK_RECORD
5
4F
330
1
100
AcDbSymbolTableRecord
100
AcDbBlockTableRecord
2
*D7
70
0
280
1
281
0
0
BLOCK_RECORD
5
52
330
1
100
AcDbSymbolTableRecord
100
AcDbBlockTableRecord
2
*D8
70
0
280
1
281
0
0
BLOCK_RECORD
5
55
330
1
100
AcDbSymbolTableRecord
100
AcDbBlockTableRecord
2
*D1
70
0
280
1
281
0
0
BLOCK_RECORD
5
58
330
1
100
AcDbSymbolTableRecord
100
AcDbBlockTableRecord
2
*D2
70
0
280
1
281
0
0
BLOCK_RECORD
5
5B
330
1
100
AcDbSymbolTableRecord
100
AcDbBlockTableRecord
2
*D3
70
0
280
1
281
0
0
BLOCK_RECORD
5
5E
330
1
100
AcDbSymbolTableRecord
100
AcDbBlockTableRecord
2
*D5
70
0
280
1
281
0
0
ENDTAB
0
ENDSEC
0
SECTION
2
BLOCKS
0
BLOCK
5
20
330
1F
100
AcDbEntity
8
0
100
AcDbBlockBegin
2
*Model_Space
70
0
10
0
20
0
30
0
3
*Model_Space
1

0
ENDBLK
5
21
330
1F
100
AcDbEntity
8
0
100
AcDbBlockEnd
0
BLOCK
5
1C
330
1B
100
AcDbEntity
8
0
100
AcDbBlockBegin
2
*Paper_Space
70
0
10
0
20
0
30
0
3
*Paper_Space
1

0
ENDBLK
5
1D
330
1F
100
AcDbEntity
8
0
100
AcDbBlockEnd
0
BLOCK
5
4A
330
49
100
AcDbEntity
8
0
100
AcDbBlockBegin
2
*D4
70
1
10
0
20
0
3
*D4
1

0
LINE
5
61
100
AcDbEntity
8
Maße
6
CONTINUOUS
62
7
370
0
100
AcDbLine
10
0
20
66
11
25
21
66
0
SOLID
5
62
100
AcDbEntity
8
Maße
6
CONTINUOUS
62
7
370
0
100
AcDbTrace
10
0
20
66
30
0
11
2.5
21
66.4162846578
31
0
12
2.5
22
65.5837153422
32
0
13
2.5
23
65.5837153422
33
0
0
SOLID
5
63
100
AcDbEntity
8
Maße
6
CONTINUOUS
62
7
370
0
100
AcDbTrace
10
25
20
66
30
0
11
22.5
21
65.5837153422
31
0
12
22.5
22
66.4162846578
32
0
13
22.5
23
66.4162846578
33
0
0
MTEXT
5
64
100
AcDbEntity
8
Maße
6
CONTINUOUS
62
7
370
0
100
AcDbMText
10
12.5
20
67.875
30
0
40
2.5
41
3.05555555556
71
5
72
1
1
25
7
standard
210
0
220
0
230
1
50
0
73
2
44
1
0
LINE
5
65
100
AcDbEntity
8
Maße
6
CONTINUOUS
62
7
370
0
100
AcDbLine
10
3.82689485569e-017
20
63.625
11
7.65378971139e-017
21
67.25
0
LINE
5
66
100
AcDbEntity
8
Maße
6
CONTINUOUS
62
7
370
0
100
AcDbLine
10
25
20
63.625
11
25
21
67.25
0
ENDBLK
5
4B
330
49
100
AcDbEntity
8
0
100
AcDbBlockEnd
0
BLOCK
5
4D
330
4C
100
AcDbEntity
8
0
100
AcDbBlockBegin
2
*D6
70
1
10
0
20
0
3
*D6
1

0
LINE
5
67
100
AcDbEntity
8
Maße
6
CONTINUOUS
62
7
370
0
100
AcDbLine
10
18.5
20
36
11
48.5
21
36
0
SOLID
5
68
100
AcDbEntity
8
Maße
6
CONTINUOUS
62
7
370
0
100
AcDbTrace
10
18.5
20
36
30
0
11
21
21
36.4162846578
31
0
12
21
22
35.5837153422
32
0
13
21
23
35.5837153422
33
0
0
SOLID
5
69
100
AcDbEntity
8
Maße
6
CONTINUOUS
62
7
370
0
100
AcDbTrace
10
48.5
20
36
30
0
11
46
21
35.5837153422
31
0
12
46
22
36.4162846578
32
0
13
46
23
36.4162846578
33
0
0
MTEXT
5
6A
100
AcDbEntity
8
Maße
6
CONTINUOUS
62
7
370
0
100
AcDbMText
10
33.5
20
37.875
30
0
40
2.5
41
3.05555555556
71
5
72
1
1
30
7
standard
210
0
220
0
230
1
50
0
73
2
44
1
0
LINE
5
6B
100
AcDbEntity
8
Maße
6
CONTINUOUS
62
7
370
0
100
AcDbLine
10
18.5
20
17.125
11
18.5
21
37.25
0
LINE
5
6C
100
AcDbEntity
8
Maße
6
CONTINUOUS
62
7
370
0
100
AcDbLine
10
48.5
20
17.125
11
48.5
21
37.25
0
ENDBLK
5
4E
330
4C
100
AcDbEntity
8
0
100
AcDbBlockEnd
0
BLOCK
5
50
330
4F
100
AcDbEntity
8
0
100
AcDbBlockBegin
2
*D7
70
1
10
0
20
0
3
*D7
1

0
LINE
5
6D
100
AcDbEntity
8
Maße
6
CONTINUOUS
62
7
370
0
100
AcDbLine
10
-5
20
26
11
-5
21
45
0
SOLID
5
6E
100
AcDbEntity
8
Maße
6
CONTINUOUS
62
7
370
0
100
AcDbTrace
10
-5
20
26
30
0
11
-5.41628465777
21
28.5
31
0
12
-4.58371534223
22
28.5
32
0
13
-4.58371534223
23
28.5
33
0
0
SOLID
5
6F
100
AcDbEntity
8
Maße
6
CONTINUOUS
62
7
370
0
100
AcDbTrace
10
-5
20
45
30
0
11
-4.58371534223
21
42.5
31
0
12
-5.41628465777
22
42.5
32
0
13
-5.41628465777
23
42.5
33
0
0
MTEXT
5
70
100
AcDbEntity
8
Maße
6
CONTINUOUS
62
7
370
0
100
AcDbMText
10
-6.875
20
35.5
30
0
40
2.5
41
2.5
71
5
72
1
1
19
7
standard
210
0
220
0
230
1
50
90
73
2
44
1
0
LINE
5
71
100
AcDbEntity
8
Maße
6
CONTINUOUS
62
7
370
0
100
AcDbLine
10
-0.625
20
26
11
-6.25
21
26
0
LINE
5
72
100
AcDbEntity
8
Maße
6
CONTINUOUS
62
7
370
0
100
AcDbLine
10
-0.625
20
45
11
-6.25
21
45
0
ENDBLK
5
51
330
4F
100
AcDbEntity
8
0
100
AcDbBlockEnd
0
BLOCK
5
53
330
52
100
AcDbEntity
8
0
100
AcDbBlockBegin
2
*D8
70
1
10
0
20
0
3
*D8
1

0
LINE
5
73
100
AcDbEntity
8
Maße
6
CONTINUOUS
62
7
370
0
100
AcDbLine
10
-5
20
46
11
10
21
46
0
SOLID
5
74
100
AcDbEntity
8
Maße
6
CONTINUOUS
62
7
370
0
100
AcDbTrace
10
0
20
46
30
0
11
-2.5
21
45.5837153422
31
0
12
-2.5
22
46.4162846578
32
0
13
-2.5
23
46.4162846578
33
0
0
SOLID
5
75
100
AcDbEntity
8
Maße
6
CONTINUOUS
62
7
370
0
100
AcDbTrace
10
5
20
46
30
0
11
7.5
21
46.4162846578
31
0
12
7.5
22
45.5837153422
32
0
13
7.5
23
45.5837153422
33
0
0
MTEXT
5
76
100
AcDbEntity
8
Maße
6
CONTINUOUS
62
7
370
0
100
AcDbMText
10
2.5
20
47.875
30
0
40
2.5
41
1.11111111111
71
5
72
1
1
5
7
standard
210
0
220
0
230
1
50
0
73
2
44
1
0
LINE
5
77
100
AcDbEntity
8
Maße
6
CONTINUOUS
62
7
370
0
100
AcDbLine
10
3.82689485569e-017
20
45.625
11
7.65378971139e-017
21
47.25
0
LINE
5
78
100
AcDbEntity
8
Maße
6
CONTINUOUS
62
7
370
0
100
AcDbLine
10
5
20
45.625
11
5
21
47.25
0
ENDBLK
5
54
330
52
100
AcDbEntity
8
0
100
AcDbBlockEnd
0
BLOCK
5
56
330
55
100
AcDbEntity
8
0
100
AcDbBlockBegin
2
*D1
70
1
10
0
20
0
3
*D1
1

0
LINE
5
79
100
AcDbEntity
8
Maße
6
CONTINUOUS
62
7
370
0
100
AcDbLine
10
12.48959236
20
14.0251262658
11
24.51040764
21
18.9748737342
0
SOLID
5
7A
100
AcDbEntity
8
Maße
6
CONTINUOUS
62
7
370
0
100
AcDbTrace
10
17.1129828523
20
15.9288752921
30
0
11
14.9597879085
21
14.5920714732
31
0
12
14.6427873037
22
15.3619300847
32
0
13
14.6427873037
23
15.3619300847
33
0
0
SOLID
5
7B
100
AcDbEntity
8
Maße
6
CONTINUOUS
62
7
370
0
100
AcDbTrace
10
19.8870171477
20
17.0711247079
30
0
11
22.0402120915
21
18.4079285268
31
0
12
22.3572126963
22
17.6380699153
32
0
13
22.3572126963
23
17.6380699153
33
0
0
MTEXT
5
7C
100
AcDbEntity
8
Maße
6
CONTINUOUS
62
7
370
0
100
AcDbMText
10
17.7860941151
20
18.2337714346
30
0
40
2.5
41
1.11111111111
71
5
72
1
1
3
7
standard
210
0
220
0
230
1
50
22.3801350528
73
2
44
1
0
ENDBLK
5
57
330
55
100
AcDbEntity
8
0
100
AcDbBlockEnd
0
BLOCK
5
59
330
58
100
AcDbEntity
8
0
100
AcDbBlockBegin
2
*D2
70
1
10
0
20
0
3
*D2
1

0
LINE
5
7D
100
AcDbEntity
8
Maße
6
CONTINUOUS
62
7
370
0
100
AcDbLine
10
-5
20
23
11
-5
21
10
0
SOLID
5
7E
100
AcDbEntity
8
Maße
6
CONTINUOUS
62
7
370
0
100
AcDbTrace
10
-5
20
23
30
0
11
-4.58371534223
21
20.5
31
0
12
-5.41628465777
22
20.5
32
0
13
-5.41628465777
23
20.5
33
0
0
SOLID
5
7F
100
AcDbEntity
8
Maße
6
CONTINUOUS
62
7
370
0
100
AcDbTrace
10
-5
20
10
30
0
11
-5.41628465777
21
12.5
31
0
12
-4.58371534223
22
12.5
32
0
13
-4.58371534223
23
12.5
33
0
0
MTEXT
5
80
100
AcDbEntity
8
Maße
6
CONTINUOUS
62
7
370
0
100
AcDbMText
10
-6.875
20
16.5
30
0
40
2.5
41
2.5
71
5
72
1
1
13
7
standard
210
0
220
0
230
1
50
90
73
2
44
1
0
LINE
5
81
100
AcDbEntity
8
Maße
6
CONTINUOUS
62
7
370
0
100
AcDbLine
10
-0.625
20
23
11
-6.25
21
23
0
LINE
5
82
100
AcDbEntity
8
Maße
6
CONTINUOUS
62
7
370
0
100
AcDbLine
10
-0.625
20
10
11
-6.25
21
10
0
ENDBLK
5
5A
330
58
100
AcDbEntity
8
0
100
AcDbBlockEnd
0
BLOCK
5
5C
330
5B
100
AcDbEntity
8
0
100
AcDbBlockBegin
2
*D3
70
1
10
0
20
0
3
*D3
1

0
LINE
5
83
100
AcDbEntity
8
Maße
6
CONTINUOUS
62
7
370
0
100
AcDbLine
10
-5
20
50
11
-5
21
63
0
SOLID
5
84
100
AcDbEntity
8
Maße
6
CONTINUOUS
62
7
370
0
100
AcDbTrace
10
-5
20
50
30
0
11
-5.41628465777
21
52.5
31
0
12
-4.58371534223
22
52.5
32
0
13
-4.58371534223
23
52.5
33
0
0
SOLID
5
85
100
AcDbEntity
8
Maße
6
CONTINUOUS
62
7
370
0
100
AcDbTrace
10
-5
20
63
30
0
11
-4.58371534223
21
60.5
31
0
12
-5.41628465777
22
60.5
32
0
13
-5.41628465777
23
60.5
33
0
0
MTEXT
5
86
100
AcDbEntity
8
Maße
6
CONTINUOUS
62
7
370
0
100
AcDbMText
10
-6.875
20
56.5
30
0
40
2.5
41
2.5
71
5
72
1
1
13
7
standard
210
0
220
0
230
1
50
90
73
2
44
1
0
LINE
5
87
100
AcDbEntity
8
Maße
6
CONTINUOUS
62
7
370
0
100
AcDbLine
10
-0.625
20
50
11
-6.25
21
50
0
LINE
5
88
100
AcDbEntity
8
Maße
6
CONTINUOUS
62
7
370
0
100
AcDbLine
10
-0.625
20
63
11
-6.25
21
63
0
ENDBLK
5
5D
330
5B
100
AcDbEntity
8
0
100
AcDbBlockEnd
0
BLOCK
5
5F
330
5E
100
AcDbEntity
8
0
100
AcDbBlockBegin
2
*D5
70
1
10
0
20
0
3
*D5
1

0
LINE
5
89
100
AcDbEntity
8
Maße
6
CONTINUOUS
62
7
370
0
100
AcDbLine
10
0
20
-5
11
53.5
21
-5
0
SOLID
5
8A
100
AcDbEntity
8
Maße
6
CONTINUOUS
62
7
370
0
100
AcDbTrace
10
0
20
-5
30
0
11
2.5
21
-4.58371534223
31
0
12
2.5
22
-5.41628465777
32
0
13
2.5
23
-5.41628465777
33
0
0
SOLID
5
8B
100
AcDbEntity
8
Maße
6
CONTINUOUS
62
7
370
0
100
AcDbTrace
10
53.5
20
-5
30
0
11
51
21
-5.41628465777
31
0
12
51
22
-4.58371534223
32
0
13
51
23
-4.58371534223
33
0
0
MTEXT
5
8C
100
AcDbEntity
8
Maße
6
CONTINUOUS
62
7
370
0
100
AcDbMText
10
26.75
20
-3.125
30
0
40
2.5
41
5.83333333333
71
5
72
1
1
53.5
7
standard
210
0
220
0
230
1
50
0
73
2
44
1
0
LINE
5
8D
100
AcDbEntity
8
Maße
6
CONTINUOUS
62
7
370
0
100
AcDbLine
10
-1.14806845671e-016
20
9.375
11
-2.29613691342e-016
21
-6.25
0
LINE
5
8E
100
AcDbEntity
8
Maße
6
CONTINUOUS
62
7
370
0
100
AcDbLine
10
53.5
20
15.875
11
53.5
21
-6.25
0
ENDBLK
5
60
330
5E
100
AcDbEntity
8
0
100
AcDbBlockEnd
0
ENDSEC
0
SECTION
2
ENTITIES
0
LINE
5
8F
100
AcDbEntity
8
0
6
ByLayer
62
256
370
-1
100
AcDbLine
10
0
20
10
11
0
21
15
0
LINE
5
90
100
AcDbEntity
8
0
6
ByLayer
62
256
370
-1
100
AcDbLine
10
0
20
15
11
2.5
21
15
0
LINE
5
91
100
AcDbEntity
8
0
6
ByLayer
62
256
370
-1
100
AcDbLine
10
2.5
20
15
11
2.5
21
18
0
LINE
5
92
100
AcDbEntity
8
0
6
ByLayer
62
256
370
-1
100
AcDbLine
10
2.5
20
18
11
2.77555756156e-017
21
18
0
LINE
5
93
100
AcDbEntity
8
0
6
ByLayer
62
256
370
-1
100
AcDbLine
10
2.77555756156e-017
20
18
11
2.77555756156e-017
21
23
0
LINE
5
94
100
AcDbEntity
8
0
6
ByLayer
62
256
370
-1
100
AcDbLine
10
11.5798351661
20
10
11
0
21
10
0
LINE
5
95
100
AcDbEntity
8
0
6
ByLayer
62
256
370
-1
100
AcDbLine
10
2.77555756156e-017
20
23
11
11.5798351661
21
23
0
CIRCLE
5
96
100
AcDbEntity
8
0
6
ByLayer
62
256
370
-1
100
AcDbCircle
10
18.5
20
16.5
40
1.5
0
DIMENSION
5
97
100
AcDbEntity
8
Maße
6
ByLayer
62
256
370
-1
100
AcDbDimension
2
*D1
10
17.1129828523
20
15.9288752921
30
0
11
17.7860941151
21
18.2337714346
31
0
70
35
71
5
72
0
3
Standard
53
0
210
0
220
0
230
1
100
AcDbDiametricDimension
15
19.8870171477
25
17.0711247079
35
0
40
0
0
ARC
5
98
100
AcDbEntity
8
0
6
ByLayer
62
256
370
-1
100
AcDbCircle
10
46.1225516202
20
4.79552897448
40
1.5
100
AcDbArc
50
157.03622694
51
337.03622694
0
ARC
5
99
100
AcDbEntity
8
0
6
ByLayer
62
256
370
-1
100
AcDbCircle
10
18.5
20
16.5
40
31.5
100
AcDbArc
50
337.03622694
51
22.9637720832
0
ARC
5
9A
100
AcDbEntity
8
0
6
ByLayer
62
256
370
-1
100
AcDbCircle
10
46.1225516202
20
28.2044710255
40
1.5
100
AcDbArc
50
22.9637525504
51
202.96379619
0
ARC
5
9B
100
AcDbEntity
8
0
6
ByLayer
62
256
370
-1
100
AcDbCircle
10
18.5
20
16.5
40
28.5
100
AcDbArc
50
337.036227705
51
22.9637718425
0
LINE
5
9C
100
AcDbEntity
8
Hilfslinien
6
ByLayer
62
256
370
-1
100
AcDbLine
10
18.5
20
16.5
11
53.5
21
16.5
0
LINE
5
9D
100
AcDbEntity
8
Hilfslinien
6
ByLayer
62
256
370
-1
100
AcDbLine
10
18.5
20
16.5
11
50.8
21
3
0
LINE
5
9E
100
AcDbEntity
8
Hilfslinien
6
ByLayer
62
256
370
-1
100
AcDbLine
10
18.5
20
16.5
11
50.8
21
30.1
0
LINE
5
9F
100
AcDbEntity
8
Hilfslinien
6
ByLayer
62
256
370
-1
100
AcDbLine
10
11.5798351661
20
10
11
44.2175383181
21
-0.763276682467
0
ARC
5
A0
100
AcDbEntity
8
0
6
ByLayer
62
256
370
-1
100
AcDbCircle
10
45.7834854497
20
3.98517670586
40
5
100
AcDbArc
50
251.748454337
51
335.183682969
0
LINE
5
A1
100
AcDbEntity
8
0
6
ByLayer
62
256
370
-1
100
AcDbLine
10
44.2175386769
20
-0.763276800815
11
11.5798351661
21
10
0
ARC
5
A2
100
AcDbEntity
8
0
6
ByLayer
62
256
370
-1
100
AcDbCircle
10
45.6525733406
20
28.9621375059
40
5
100
AcDbArc
50
25.4169219414
51
108.236421055
0
LINE
5
A3
100
AcDbEntity
8
0
6
ByLayer
62
256
370
-1
100
AcDbLine
10
44.0878797328
20
33.7110040984
11
11.5798351661
21
23
0
ARC
5
A4
100
AcDbEntity
8
0
6
ByLayer
62
256
370
-1
100
AcDbCircle
10
19.0780970057
20
16.3340288395
40
34.4223031213
100
AcDbArc
50
335.183682969
51
25.4169219414
0
LINE
5
A5
100
AcDbEntity
8
0
6
ByLayer
62
256
370
-1
100
AcDbLine
10
0
20
50
11
25
21
50
0
LINE
5
A6
100
AcDbEntity
8
0
6
ByLayer
62
256
370
-1
100
AcDbLine
10
25
20
50
11
25
21
63
0
LINE
5
A7
100
AcDbEntity
8
0
6
ByLayer
62
256
370
-1
100
AcDbLine
10
25
20
63
11
0
21
63
0
LINE
5
A8
100
AcDbEntity
8
0
6
ByLayer
62
256
370
-1
100
AcDbLine
10
0
20
63
11
0
21
58
0
LINE
5
A9
100
AcDbEntity
8
0
6
ByLayer
62
256
370
-1
100
AcDbLine
10
0
20
58
11
2.5
21
58
0
LINE
5
AA
100
AcDbEntity
8
0
6
ByLayer
62
256
370
-1
100
AcDbLine
10
2.5
20
58
11
2.5
21
55
0
LINE
5
AB
100
AcDbEntity
8
0
6
ByLayer
62
256
370
-1
100
AcDbLine
10
2.5
20
55
11
0
21
55
0
LINE
5
AC
100
AcDbEntity
8
0
6
ByLayer
62
256
370
-1
100
AcDbLine
10
0
20
55
11
0
21
50
0
LINE
5
AD
100
AcDbEntity
8
Hilfslinien
6
ByLayer
62
256
370
-1
100
AcDbLine
10
-0.5
20
56.5
11
26
21
56.5
0
LINE
5
AE
100
AcDbEntity
8
Hilfslinien
6
ByLayer
62
256
370
-1
100
AcDbLine
10
18.5
20
16.5
11
18.5
21
64
0
CIRCLE
5
AF
100
AcDbEntity
8
0
6
ByLayer
62
256
370
-1
100
AcDbCircle
10
18.5
20
56.5
40
1.5
0
LINE
5
B0
100
AcDbEntity
8
0
6
ByLayer
62
256
370
-1
100
AcDbLine
10
5
20
34
11
2.5
21
34
0
LINE
5
B1
100
AcDbEntity
8
0
6
ByLayer
62
256
370
-1
100
AcDbLine
10
2.5
20
34
11
2.5
21
31
0
LINE
5
B2
100
AcDbEntity
8
0
6
ByLayer
62
256
370
-1
100
AcDbLine
10
2.5
20
31
11
5
21
31
0
LINE
5
B3
100
AcDbEntity
8
0
6
ByLayer
62
256
370
-1
100
AcDbLine
10
5
20
31
11
5
21
26
0
LINE
5
B4
100
AcDbEntity
8
0
6
ByLayer
62
256
370
-1
100
AcDbLine
10
5
20
26
11
0
21
26
0
LINE
5
B5
100
AcDbEntity
8
0
6
ByLayer
62
256
370
-1
100
AcDbLine
10
5
20
34
11
5
21
37
0
LINE
5
B6
100
AcDbEntity
8
0
6
ByLayer
62
256
370
-1
100
AcDbLine
10
5
20
37
11
2.5
21
37
0
LINE
5
B7
100
AcDbEntity
8
0
6
ByLayer
62
256
370
-1
100
AcDbLine
10
2.5
20
37
11
2.5
21
40
0
LINE
5
B8
100
AcDbEntity
8
0
6
ByLayer
62
256
370
-1
100
AcDbLine
10
2.5
20
40
11
5
21
40
0
LINE
5
B9
100
AcDbEntity
8
0
6
ByLayer
62
256
370
-1
100
AcDbLine
10
5
20
40
11
5
21
45
0
LINE
5
BA
100
AcDbEntity
8
0
6
ByLayer
62
256
370
-1
100
AcDbLine
10
5
20
45
11
0
21
45
0
LINE
5
BB
100
AcDbEntity
8
0
6
ByLayer
62
256
370
-1
100
AcDbLine
10
0
20
45
11
0
21
26
0
DIMENSION
5
BC
100
AcDbEntity
8
Maße
6
ByLayer
62
256
370
-1
100
AcDbDimension
2
*D2
10
-5
20
10
30
0
11
-6.875
21
16.5
31
0
70
32
71
5
72
0
3
Standard
53
0
210
0
220
0
230
1
100
AcDbAlignedDimension
13
2.77555756156e-017
23
23
33
0
14
0
24
10
34
0
50
90
100
AcDbRotatedDimension
0
DIMENSION
5
BD
100
AcDbEntity
8
Maße
6
ByLayer
62
256
370
-1
100
AcDbDimension
2
*D3
10
-5
20
63
30
0
11
-6.875
21
56.5
31
0
70
32
71
5
72
0
3
Standard
53
0
210
0
220
0
230
1
100
AcDbAlignedDimension
13
0
23
50
33
0
14
0
24
63
34
0
50
90
100
AcDbRotatedDimension
0
DIMENSION
5
BE
100
AcDbEntity
8
Maße
6
ByLayer
62
256
370
-1
100
AcDbDimension
2
*D4
10
25
20
66
30
0
11
12.5
21
67.875
31
0
70
32
71
5
72
0
3
Standard
53
0
210
0
220
0
230
1
100
AcDbAlignedDimension
13
0
23
63
33
0
14
25
24
63
34
0
100
AcDbRotatedDimension
0
DIMENSION
5
BF
100
AcDbEntity
8
Maße
6
ByLayer
62
256
370
-1
100
AcDbDimension
2
*D5
10
53.5
20
-5
30
0
11
26.75
21
-3.125
31
0
70
32
71
5
72
0
3
Standard
53
0
210
0
220
0
230
1
100
AcDbAlignedDimension
13
0
23
10
33
0
14
53.5
24
16.5
34
0
100
AcDbRotatedDimension
0
LINE
5
C0
100
AcDbEntity
8
Hilfslinien
6
ByLayer
62
256
370
-1
100
AcDbLine
10
48.5
20
16
11
48.5
21
17
0
DIMENSION
5
C1
100
AcDbEntity
8
Maße
6
ByLayer
62
256
370
-1
100
AcDbDimension
2
*D6
10
48.5
20
36
30
0
11
33.5
21
37.875
31
0
70
32
71
5
72
0
3
Standard
53
0
210
0
220
0
230
1
100
AcDbAlignedDimension
13
18.5
23
16.5
33
0
14
48.5
24
16.5
34
0
100
AcDbRotatedDimension
0
DIMENSION
5
C2
100
AcDbEntity
8
Maße
6
ByLayer
62
256
370
-1
100
AcDbDimension
2
*D7
10
-5
20
45
30
0
11
-6.875
21
35.5
31
0
70
32
71
5
72
0
3
Standard
53
0
210
0
220
0
230
1
100
AcDbAlignedDimension
13
0
23
26
33
0
14
0
24
45
34
0
50
90
100
AcDbRotatedDimension
0
DIMENSION
5
C3
100
AcDbEntity
8
Maße
6
ByLayer
62
256
370
-1
100
AcDbDimension
2
*D8
10
5
20
46
30
0
11
2.5
21
47.875
31
0
70
32
71
5
72
0
3
Standard
53
0
210
0
220
0
230
1
100
AcDbAlignedDimension
13
0
23
45
33
0
14
5
24
45
34
0
100
AcDbRotatedDimension
0
MTEXT
5
C4
100
AcDbEntity
8
Beschriftung
6
ByLayer
62
256
370
-1
100
AcDbMText
10
2
20
-10
30
0
40
2
41
24.5555551316
71
1
72
1
1
8 Slider Außenteil
7
standard
210
0
220
0
230
1
50
0
73
2
44
1
0
MTEXT
5
C5
100
AcDbEntity
8
Beschriftung
6
ByLayer
62
256
370
-1
100
AcDbMText
10
1
20
74
30
0
40
2
41
22.999999576
71
1
72
1
1
9 Slider Innenteil
7
standard
210
0
220
0
230
1
50
0
73
2
44
1
0
MTEXT
5
C6
100
AcDbEntity
8
Beschriftung
6
ByLayer
62
256
370
-1
100
AcDbMText
10
8
20
44
30
0
40
2
41
25.8888884649
71
1
72
1
1
10 Slider Verbinder
7
standard
210
0
220
0
230
1
50
0
73
2
44
1
0
ENDSEC
0
SECTION
2
OBJECTS
0
DICTIONARY
5
C
330
0
100
AcDbDictionary
281
1
3
ACAD_GROUP
350
D
0
DICTIONARY
5
D
330
C
100
AcDbDictionary
281
1
0
ENDSEC
0
EOF
