999
dxfrw 0.5.10
0
SECTION
2
HEADER
9
$ACADVER
1
AC1021
9
$HANDSEED
5
20000
9
$DWGCODEPAGE
3
ANSI_1252
9
$INSBASE
10
0
20
0
30
0
9
$EXTMIN
10
-13.125
20
-17.3333333622
30
0
9
$EXTMAX
10
123.25
20
91.125
30
0
9
$LIMMIN
10
0
20
0
9
$LIMMAX
10
420
20
297
9
$ORTHOMODE
70
0
9
$LTSCALE
40
1
9
$TEXTSTYLE
7
STANDARD
9
$CLAYER
8
Beschriftung
9
$DIMASZ
40
2.5
9
$DIMLFAC
40
1
9
$DIMSCALE
40
1
9
$DIMEXO
40
0.625
9
$DIMEXE
40
1.25
9
$DIMTXT
40
2.5
9
$DIMTSZ
40
0
9
$DIMAUNIT
70
0
9
$DIMADEC
70
0
9
$DIMLUNIT
70
2
9
$DIMSTYLE
2
STANDARD
9
$DIMGAP
40
0.625
9
$DIMTIH
70
0
9
$LUNITS
70
2
9
$LUPREC
70
4
9
$AUNITS
70
0
9
$AUPREC
70
2
9
$SPLINESEGS
70
8
9
$GRIDMODE
70
1
9
$SNAPSTYLE
70
0
9
$PINSBASE
10
0
20
0
30
0
9
$PLIMMIN
10
0
20
0
9
$PLIMMAX
10
297
20
420
9
$INSUNITS
70
4
9
$PSVPSCALE
40
1
0
ENDSEC
0
SECTION
2
CLASSES
0
ENDSEC
0
SECTION
2
TABLES
0
TABLE
2
VPORT
5
8
330
0
100
AcDbSymbolTable
70
1
0
VPORT
5
31
330
2
100
AcDbSymbolTableRecord
100
AcDbViewportTableRecord
2
*ACTIVE
70
0
10
0
20
0
11
1
21
1
12
78.0000000002
22
53.4000000001
13
0
23
0
14
10
24
10
15
10
25
10
16
0
26
0
36
1
17
0
27
0
37
0
40
147.8
41
1.22598105548
42
50
43
0
44
0
50
0
51
0
71
0
72
100
73
1
74
3
75
0
76
1
77
0
78
0
281
0
65
1
110
0
120
0
130
0
111
1
121
0
131
0
112
0
122
1
132
0
79
0
146
0
348
10020
60
7
61
5
292
1
282
1
141
0
142
0
63
250
421
3358443
0
ENDTAB
0
TABLE
2
LTYPE
5
5
330
0
100
AcDbSymbolTable
70
4
0
LTYPE
5
14
330
5
100
AcDbSymbolTableRecord
100
AcDbLinetypeTableRecord
2
ByBlock
70
0
3

72
65
73
0
40
0
0
LTYPE
5
15
330
5
100
AcDbSymbolTableRecord
100
AcDbLinetypeTableRecord
2
ByLayer
70
0
3

72
65
73
0
40
0
0
LTYPE
5
16
330
5
100
AcDbSymbolTableRecord
100
AcDbLinetypeTableRecord
2
Continuous
70
0
3
Solid line
72
65
73
0
40
0
0
LTYPE
5
32
330
5
100
AcDbSymbolTableRecord
100
AcDbLinetypeTableRecord
2
DOT
70
0
3
Dot . . . . . . . . . . . . . . . . . . . . . .
72
65
73
2
40
6.35
49
0
74
0
49
-6.35
74
0
0
LTYPE
5
33
330
5
100
AcDbSymbolTableRecord
100
AcDbLinetypeTableRecord
2
DOT2
70
0
3
Dot (.5x) .....................................
72
65
73
2
40
3.175
49
0
74
0
49
-3.175
74
0
0
LTYPE
5
34
330
5
100
AcDbSymbolTableRecord
100
AcDbLinetypeTableRecord
2
DOTX2
70
0
3
Dot (2x) .  .  .  .  .  .  .  .  .  .  .  .  .
72
65
73
2
40
12.7
49
0
74
0
49
-12.7
74
0
0
LTYPE
5
35
330
5
100
AcDbSymbolTableRecord
100
AcDbLinetypeTableRecord
2
DASHED
70
0
3
Dot . . . . . . . . . . . . . . . . . . . . . .
72
65
73
2
40
19.05
49
12.7
74
0
49
-6.35
74
0
0
LTYPE
5
36
330
5
100
AcDbSymbolTableRecord
100
AcDbLinetypeTableRecord
2
DASHED2
70
0
3
Dashed (.5x) _ _ _ _ _ _ _ _ _ _ _ _ _ _ _ _ _
72
65
73
2
40
9.525
49
6.35
74
0
49
-3.175
74
0
0
LTYPE
5
37
330
5
100
AcDbSymbolTableRecord
100
AcDbLinetypeTableRecord
2
DASHEDX2
70
0
3
Dashed (2x) ____  ____  ____  ____  ____  ___
72
65
73
2
40
38.1
49
25.4
74
0
49
-12.7
74
0
0
LTYPE
5
38
330
5
100
AcDbSymbolTableRecord
100
AcDbLinetypeTableRecord
2
DASHDOT
70
0
3
Dash dot __ . __ . __ . __ . __ . __ . __ . __
72
65
73
4
40
25.4
49
12.7
74
0
49
-6.35
74
0
49
0
74
0
49
-6.35
74
0
0
LTYPE
5
39
330
5
100
AcDbSymbolTableRecord
100
AcDbLinetypeTableRecord
2
DASHDOT2
70
0
3
Dash dot (.5x) _._._._._._._._._._._._._._._.
72
65
73
4
40
12.7
49
6.35
74
0
49
-3.175
74
0
49
0
74
0
49
-3.175
74
0
0
LTYPE
5
3A
330
5
100
AcDbSymbolTableRecord
100
AcDbLinetypeTableRecord
2
DASHDOTX2
70
0
3
Dash dot (2x) ____  .  ____  .  ____  .  ___
72
65
73
4
40
50.8
49
25.4
74
0
49
-12.7
74
0
49
0
74
0
49
-12.7
74
0
0
LTYPE
5
3B
330
5
100
AcDbSymbolTableRecord
100
AcDbLinetypeTableRecord
2
DIVIDE
70
0
3
Divide ____ . . ____ . . ____ . . ____ . . ____
72
65
73
6
40
31.75
49
12.7
74
0
49
-6.35
74
0
49
0
74
0
49
-6.35
74
0
49
0
74
0
49
-6.35
74
0
0
LTYPE
5
3C
330
5
100
AcDbSymbolTableRecord
100
AcDbLinetypeTableRecord
2
DIVIDE2
70
0
3
Divide (.5x) __..__..__..__..__..__..__..__.._
72
65
73
6
40
15.875
49
6.35
74
0
49
-3.175
74
0
49
0
74
0
49
-3.175
74
0
49
0
74
0
49
-3.175
74
0
0
LTYPE
5
3D
330
5
100
AcDbSymbolTableRecord
100
AcDbLinetypeTableRecord
2
DIVIDEX2
70
0
3
Divide (2x) ________  .  .  ________  .  .  _
72
65
73
6
40
63.5
49
25.4
74
0
49
-12.7
74
0
49
0
74
0
49
-12.7
74
0
49
0
74
0
49
-12.7
74
0
0
LTYPE
5
3E
330
5
100
AcDbSymbolTableRecord
100
AcDbLinetypeTableRecord
2
BORDER
70
0
3
Border __ __ . __ __ . __ __ . __ __ . __ __ .
72
65
73
6
40
44.45
49
12.7
74
0
49
-6.35
74
0
49
12.7
74
0
49
-6.35
74
0
49
0
74
0
49
-6.35
74
0
0
LTYPE
5
3F
330
5
100
AcDbSymbolTableRecord
100
AcDbLinetypeTableRecord
2
BORDER2
70
0
3
Border (.5x) __.__.__.__.__.__.__.__.__.__.__.
72
65
73
6
40
22.225
49
6.35
74
0
49
-3.175
74
0
49
6.35
74
0
49
-3.175
74
0
49
0
74
0
49
-3.175
74
0
0
LTYPE
5
40
330
5
100
AcDbSymbolTableRecord
100
AcDbLinetypeTableRecord
2
BORDERX2
70
0
3
Border (2x) ____  ____  .  ____  ____  .  ___
72
65
73
6
40
88.9
49
25.4
74
0
49
-12.7
74
0
49
25.4
74
0
49
-12.7
74
0
49
0
74
0
49
-12.7
74
0
0
LTYPE
5
41
330
5
100
AcDbSymbolTableRecord
100
AcDbLinetypeTableRecord
2
CENTER
70
0
3
Center ____ _ ____ _ ____ _ ____ _ ____ _ ____
72
65
73
4
40
50.8
49
31.75
74
0
49
-6.35
74
0
49
6.35
74
0
49
-6.35
74
0
0
LTYPE
5
42
330
5
100
AcDbSymbolTableRecord
100
AcDbLinetypeTableRecord
2
CENTER2
70
0
3
Center (.5x) ___ _ ___ _ ___ _ ___ _ ___ _ ___
72
65
73
4
40
28.575
49
19.05
74
0
49
-3.175
74
0
49
3.175
74
0
49
-3.175
74
0
0
LTYPE
5
43
330
5
100
AcDbSymbolTableRecord
100
AcDbLinetypeTableRecord
2
CENTERX2
70
0
3
Center (2x) ________  __  ________  __  _____
72
65
73
4
40
101.6
49
63.5
74
0
49
-12.7
74
0
49
12.7
74
0
49
-12.7
74
0
0
ENDTAB
0
TABLE
2
LAYER
5
2
330
0
100
AcDbSymbolTable
70
1
0
LAYER
5
10
330
2
100
AcDbSymbolTableRecord
100
AcDbLayerTableRecord
2
0
70
0
62
7
6
CONTINUOUS
370
0
390
F
0
LAYER
5
44
330
2
100
AcDbSymbolTableRecord
100
AcDbLayerTableRecord
2
Maße
70
0
62
5
6
CONTINUOUS
370
0
390
F
0
LAYER
5
45
330
2
100
AcDbSymbolTableRecord
100
AcDbLayerTableRecord
2
Beschriftung
70
0
62
1
6
CONTINUOUS
370
0
390
F
0
ENDTAB
0
TABLE
2
STYLE
5
3
330
0
100
AcDbSymbolTable
70
3
0
STYLE
5
46
330
2
100
AcDbSymbolTableRecord
100
AcDbTextStyleTableRecord
2
standard
70
0
40
0
41
1
50
0
71
0
42
1
3
standard
4

0
ENDTAB
0
TABLE
2
VIEW
5
6
330
0
100
AcDbSymbolTable
70
0
0
ENDTAB
0
TABLE
2
UCS
5
7
330
0
100
AcDbSymbolTable
70
0
0
ENDTAB
0
TABLE
2
APPID
5
9
330
0
100
AcDbSymbolTable
70
1
0
APPID
5
12
330
9
100
AcDbSymbolTableRecord
100
AcDbRegAppTableRecord
2
ACAD
70
0
0
ENDTAB
0
TABLE
2
DIMSTYLE
5
A
330
0
100
AcDbSymbolTable
70
1
100
AcDbDimStyleTable
71
1
0
DIMSTYLE
105
47
330
A
100
AcDbSymbolTableRecord
100
AcDbDimStyleTableRecord
2
Standard
70
0
40
1
41
2.5
42
0.625
43
0.38
44
1.25
45
0
46
0
47
0
48
0
140
2.5
141
0.09
142
0
143
25.4
144
1
145
0
146
1
147
0.625
148
0
71
0
72
0
73
0
74
1
75
0
76
0
77
0
78
0
79
0
170
0
171
2
172
0
173
0
174
0
175
0
176
0
177
0
178
0
179
0
271
4
272
4
273
2
274
2
275
0
276
0
277
2
278
46
279
0
280
0
281
0
282
0
283
1
284
0
285
0
286
0
288
0
289
3
340
Standard
341

371
-2
372
-2
0
ENDTAB
0
TABLE
2
BLOCK_RECORD
5
1
330
0
100
AcDbSymbolTable
70
2
0
BLOCK_RECORD
5
1F
330
1
100
AcDbSymbolTableRecord
100
AcDbBlockTableRecord
2
*Model_Space
70
0
280
1
281
0
0
BLOCK_RECORD
5
1E
330
1
100
AcDbSymbolTableRecord
100
AcDbBlockTableRecord
2
*Paper_Space
70
0
280
1
281
0
0
BLOCK_RECORD
5
48
330
1
100
AcDbSymbolTableRecord
100
AcDbBlockTableRecord
2
*D4
70
0
280
1
281
0
0
BLOCK_RECORD
5
4B
330
1
100
AcDbSymbolTableRecord
100
AcDbBlockTableRecord
2
*D10
70
0
280
1
281
0
0
BLOCK_RECORD
5
4E
330
1
100
AcDbSymbolTableRecord
100
AcDbBlockTableRecord
2
*D12
70
0
280
1
281
0
0
BLOCK_RECORD
5
51
330
1
100
AcDbSymbolTableRecord
100
AcDbBlockTableRecord
2
*D2
70
0
280
1
281
0
0
BLOCK_RECORD
5
54
330
1
100
AcDbSymbolTableRecord
100
AcDbBlockTableRecord
2
*D3
70
0
280
1
281
0
0
BLOCK_RECORD
5
57
330
1
100
AcDbSymbolTableRecord
100
AcDbBlockTableRecord
2
*D13
70
0
280
1
281
0
0
BLOCK_RECORD
5
5A
330
1
100
AcDbSymbolTableRecord
100
AcDbBlockTableRecord
2
*D6
70
0
280
1
281
0
0
BLOCK_RECORD
5
5D
330
1
100
AcDbSymbolTableRecord
100
AcDbBlockTableRecord
2
*D9
70
0
280
1
281
0
0
BLOCK_RECORD
5
60
330
1
100
AcDbSymbolTableRecord
100
AcDbBlockTableRecord
2
*D1
70
0
280
1
281
0
0
BLOCK_RECORD
5
63
330
1
100
AcDbSymbolTableRecord
100
AcDbBlockTableRecord
2
*D7
70
0
280
1
281
0
0
BLOCK_RECORD
5
66
330
1
100
AcDbSymbolTableRecord
100
AcDbBlockTableRecord
2
*D8
70
0
280
1
281
0
0
BLOCK_RECORD
5
69
330
1
100
AcDbSymbolTableRecord
100
AcDbBlockTableRecord
2
*D5
70
0
280
1
281
0
0
BLOCK_RECORD
5
6C
330
1
100
AcDbSymbolTableRecord
100
AcDbBlockTableRecord
2
*D11
70
0
280
1
281
0
0
BLOCK_RECORD
5
6F
330
1
100
AcDbSymbolTableRecord
100
AcDbBlockTableRecord
2
*D14
70
0
280
1
281
0
0
ENDTAB
0
ENDSEC
0
SECTION
2
BLOCKS
0
BLOCK
5
20
330
1F
100
AcDbEntity
8
0
100
AcDbBlockBegin
2
*Model_Space
70
0
10
0
20
0
30
0
3
*Model_Space
1

0
ENDBLK
5
21
330
1F
100
AcDbEntity
8
0
100
AcDbBlockEnd
0
BLOCK
5
1C
330
1B
100
AcDbEntity
8
0
100
AcDbBlockBegin
2
*Paper_Space
70
0
10
0
20
0
30
0
3
*Paper_Space
1

0
ENDBLK
5
1D
330
1F
100
AcDbEntity
8
0
100
AcDbBlockEnd
0
BLOCK
5
49
330
48
100
AcDbEntity
8
0
100
AcDbBlockBegin
2
*D4
70
1
10
0
20
0
3
*D4
1

0
LINE
5
72
100
AcDbEntity
8
Maße
6
CONTINUOUS
62
7
370
0
100
AcDbLine
10
3
20
36
11
13
21
36
0
SOLID
5
73
100
AcDbEntity
8
Maße
6
CONTINUOUS
62
7
370
0
100
AcDbTrace
10
3
20
36
30
0
11
5.5
21
36.4162846578
31
0
12
5.5
22
35.5837153422
32
0
13
5.5
23
35.5837153422
33
0
0
SOLID
5
74
100
AcDbEntity
8
Maße
6
CONTINUOUS
62
7
370
0
100
AcDbTrace
10
13
20
36
30
0
11
10.5
21
35.5837153422
31
0
12
10.5
22
36.4162846578
32
0
13
10.5
23
36.4162846578
33
0
0
MTEXT
5
75
100
AcDbEntity
8
Maße
6
CONTINUOUS
62
7
370
0
100
AcDbMText
10
8
20
37.875
30
0
40
2.5
41
2.5
71
5
72
1
1
10
7
standard
210
0
220
0
230
1
50
0
73
2
44
1
0
LINE
5
76
100
AcDbEntity
8
Maße
6
CONTINUOUS
62
7
370
0
100
AcDbLine
10
3
20
33.625
11
3
21
37.25
0
LINE
5
77
100
AcDbEntity
8
Maße
6
CONTINUOUS
62
7
370
0
100
AcDbLine
10
13
20
33.625
11
13
21
37.25
0
ENDBLK
5
4A
330
48
100
AcDbEntity
8
0
100
AcDbBlockEnd
0
BLOCK
5
4C
330
4B
100
AcDbEntity
8
0
100
AcDbBlockBegin
2
*D10
70
1
10
0
20
0
3
*D10
1

0
LINE
5
78
100
AcDbEntity
8
Maße
6
CONTINUOUS
62
7
370
0
100
AcDbLine
10
122
20
70
11
122
21
48
0
SOLID
5
79
100
AcDbEntity
8
Maße
6
CONTINUOUS
62
7
370
0
100
AcDbTrace
10
122
20
70
30
0
11
122.416284658
21
67.5
31
0
12
121.583715342
22
67.5
32
0
13
121.583715342
23
67.5
33
0
0
SOLID
5
7A
100
AcDbEntity
8
Maße
6
CONTINUOUS
62
7
370
0
100
AcDbTrace
10
122
20
48
30
0
11
121.583715342
21
50.5
31
0
12
122.416284658
22
50.5
32
0
13
122.416284658
23
50.5
33
0
0
MTEXT
5
7B
100
AcDbEntity
8
Maße
6
CONTINUOUS
62
7
370
0
100
AcDbMText
10
120.125
20
59
30
0
40
2.5
41
3.05555555556
71
5
72
1
1
22
7
standard
210
0
220
0
230
1
50
90
73
2
44
1
0
LINE
5
7C
100
AcDbEntity
8
Maße
6
CONTINUOUS
62
7
370
0
100
AcDbLine
10
115.625
20
70
11
123.25
21
70
0
LINE
5
7D
100
AcDbEntity
8
Maße
6
CONTINUOUS
62
7
370
0
100
AcDbLine
10
115.625
20
48
11
123.25
21
48
0
ENDBLK
5
4D
330
4B
100
AcDbEntity
8
0
100
AcDbBlockEnd
0
BLOCK
5
4F
330
4E
100
AcDbEntity
8
0
100
AcDbBlockBegin
2
*D12
70
1
10
0
20
0
3
*D12
1

0
SOLID
5
7E
100
AcDbEntity
8
Maße
6
CONTINUOUS
62
7
370
0
100
AcDbTrace
10
44.9689118242
20
80.972366066
30
0
11
43.3769530008
21
79.0003214365
31
0
12
42.8238240542
22
79.6225915014
32
0
13
42.8238240542
23
79.6225915014
33
0
0
LINE
5
7F
100
AcDbEntity
8
Maße
6
CONTINUOUS
62
7
370
0
100
AcDbLine
10
36
20
73
11
44.9689118242
21
80.972366066
0
MTEXT
5
80
100
AcDbEntity
8
Maße
6
CONTINUOUS
62
7
370
0
100
AcDbMText
10
39.2387737143
20
78.3875755055
30
0
40
2.5
41
2.5
71
5
72
1
1
12
7
standard
210
0
220
0
230
1
50
41.6335393367
73
2
44
1
0
ENDBLK
5
50
330
4E
100
AcDbEntity
8
0
100
AcDbBlockEnd
0
BLOCK
5
52
330
51
100
AcDbEntity
8
0
100
AcDbBlockBegin
2
*D2
70
1
10
0
20
0
3
*D2
1

0
LINE
5
81
100
AcDbEntity
8
Maße
6
CONTINUOUS
62
7
370
0
100
AcDbLine
10
34.1457702368
20
80.1214751973
11
21.8542297632
21
69.8785248027
0
SOLID
5
82
100
AcDbEntity
8
Maße
6
CONTINUOUS
62
7
370
0
100
AcDbTrace
10
30.3046638388
20
76.920553199
30
0
11
31.9587180941
21
78.8408129306
31
0
12
32.4917159815
22
78.2012154657
32
0
13
32.4917159815
23
78.2012154657
33
0
0
SOLID
5
83
100
AcDbEntity
8
Maße
6
CONTINUOUS
62
7
370
0
100
AcDbTrace
10
25.6953361612
20
73.079446801
30
0
11
24.0412819059
21
71.1591870694
31
0
12
23.5082840185
22
71.7987845343
32
0
13
23.5082840185
23
71.7987845343
33
0
0
MTEXT
5
84
100
AcDbEntity
8
Maße
6
CONTINUOUS
62
7
370
0
100
AcDbMText
10
26.7996542506
20
76.4404148992
30
0
40
2.5
41
1.11111111111
71
5
72
1
1
6
7
standard
210
0
220
0
230
1
50
39.8055710923
73
2
44
1
0
ENDBLK
5
53
330
51
100
AcDbEntity
8
0
100
AcDbBlockEnd
0
BLOCK
5
55
330
54
100
AcDbEntity
8
0
100
AcDbBlockBegin
2
*D3
70
1
10
0
20
0
3
*D3
1

0
LINE
5
85
100
AcDbEntity
8
Maße
6
CONTINUOUS
62
7
370
0
100
AcDbLine
10
23.564729395
20
12.8320377855
11
34.435270605
21
23.1679622145
0
SOLID
5
86
100
AcDbEntity
8
Maße
6
CONTINUOUS
62
7
370
0
100
AcDbTrace
10
23.564729395
20
12.8320377855
30
0
11
25.0896404791
21
14.8563744922
31
0
12
25.6633320476
22
14.2530092218
32
0
13
25.6633320476
23
14.2530092218
33
0
0
SOLID
5
87
100
AcDbEntity
8
Maße
6
CONTINUOUS
62
7
370
0
100
AcDbTrace
10
34.435270605
20
23.1679622145
30
0
11
32.9103595209
21
21.1436255078
31
0
12
32.3366679524
22
21.7469907782
32
0
13
32.3366679524
23
21.7469907782
33
0
0
MTEXT
5
88
100
AcDbEntity
8
Maße
6
CONTINUOUS
62
7
370
0
100
AcDbMText
10
27.7080094464
20
19.3588176512
30
0
40
2.5
41
2.5
71
5
72
1
1
15
7
standard
210
0
220
0
230
1
50
43.5558744686
73
2
44
1
0
ENDBLK
5
56
330
54
100
AcDbEntity
8
0
100
AcDbBlockEnd
0
BLOCK
5
58
330
57
100
AcDbEntity
8
0
100
AcDbBlockBegin
2
*D13
70
1
10
0
20
0
3
*D13
1

0
LINE
5
89
100
AcDbEntity
8
Maße
6
CONTINUOUS
62
7
370
0
100
AcDbLine
10
0
20
-6
11
51
21
-6
0
SOLID
5
8A
100
AcDbEntity
8
Maße
6
CONTINUOUS
62
7
370
0
100
AcDbTrace
10
0
20
-6
30
0
11
2.5
21
-5.58371534223
31
0
12
2.5
22
-6.41628465777
32
0
13
2.5
23
-6.41628465777
33
0
0
SOLID
5
8B
100
AcDbEntity
8
Maße
6
CONTINUOUS
62
7
370
0
100
AcDbTrace
10
51
20
-6
30
0
11
48.5
21
-6.41628465777
31
0
12
48.5
22
-5.58371534223
32
0
13
48.5
23
-5.58371534223
33
0
0
MTEXT
5
8C
100
AcDbEntity
8
Maße
6
CONTINUOUS
62
7
370
0
100
AcDbMText
10
25.5
20
-4.125
30
0
40
2.5
41
2.5
71
5
72
1
1
51
7
standard
210
0
220
0
230
1
50
0
73
2
44
1
0
LINE
5
8D
100
AcDbEntity
8
Maße
6
CONTINUOUS
62
7
370
0
100
AcDbLine
10
-1.14806845671e-016
20
-0.625
11
-2.29613691342e-016
21
-7.25
0
LINE
5
8E
100
AcDbEntity
8
Maße
6
CONTINUOUS
62
7
370
0
100
AcDbLine
10
51
20
-0.625
11
51
21
-7.25
0
ENDBLK
5
59
330
57
100
AcDbEntity
8
0
100
AcDbBlockEnd
0
BLOCK
5
5B
330
5A
100
AcDbEntity
8
0
100
AcDbBlockBegin
2
*D6
70
1
10
0
20
0
3
*D6
1

0
LINE
5
8F
100
AcDbEntity
8
Maße
6
CONTINUOUS
62
7
370
0
100
AcDbLine
10
65
20
36
11
65
21
9.86076131526e-032
0
SOLID
5
90
100
AcDbEntity
8
Maße
6
CONTINUOUS
62
7
370
0
100
AcDbTrace
10
65
20
36
30
0
11
65.4162846578
21
33.5
31
0
12
64.5837153422
22
33.5
32
0
13
64.5837153422
23
33.5
33
0
0
SOLID
5
91
100
AcDbEntity
8
Maße
6
CONTINUOUS
62
7
370
0
100
AcDbTrace
10
65
20
9.86076131526e-032
30
0
11
64.5837153422
21
2.5
31
0
12
65.4162846578
22
2.5
32
0
13
65.4162846578
23
2.5
33
0
0
MTEXT
5
92
100
AcDbEntity
8
Maße
6
CONTINUOUS
62
7
370
0
100
AcDbMText
10
63.125
20
18
30
0
40
2.5
41
3.05555555556
71
5
72
1
1
36
7
standard
210
0
220
0
230
1
50
90
73
2
44
1
0
LINE
5
93
100
AcDbEntity
8
Maße
6
CONTINUOUS
62
7
370
0
100
AcDbLine
10
69.375
20
36
11
63.75
21
36
0
LINE
5
94
100
AcDbEntity
8
Maße
6
CONTINUOUS
62
7
370
0
100
AcDbLine
10
69.375
20
7.65378971139e-017
11
63.75
21
1.53075794228e-016
0
ENDBLK
5
5C
330
5A
100
AcDbEntity
8
0
100
AcDbBlockEnd
0
BLOCK
5
5E
330
5D
100
AcDbEntity
8
0
100
AcDbBlockBegin
2
*D9
70
1
10
0
20
0
3
*D9
1

0
LINE
5
95
100
AcDbEntity
8
Maße
6
CONTINUOUS
62
7
370
0
100
AcDbLine
10
67
20
68
11
67
21
50
0
SOLID
5
96
100
AcDbEntity
8
Maße
6
CONTINUOUS
62
7
370
0
100
AcDbTrace
10
67
20
68
30
0
11
67.4162846578
21
65.5
31
0
12
66.5837153422
22
65.5
32
0
13
66.5837153422
23
65.5
33
0
0
SOLID
5
97
100
AcDbEntity
8
Maße
6
CONTINUOUS
62
7
370
0
100
AcDbTrace
10
67
20
50
30
0
11
66.5837153422
21
52.5
31
0
12
67.4162846578
22
52.5
32
0
13
67.4162846578
23
52.5
33
0
0
MTEXT
5
98
100
AcDbEntity
8
Maße
6
CONTINUOUS
62
7
370
0
100
AcDbMText
10
65.125
20
59
30
0
40
2.5
41
2.5
71
5
72
1
1
18
7
standard
210
0
220
0
230
1
50
90
73
2
44
1
0
LINE
5
99
100
AcDbEntity
8
Maße
6
CONTINUOUS
62
7
370
0
100
AcDbLine
10
69.375
20
68
11
65.75
21
68
0
LINE
5
9A
100
AcDbEntity
8
Maße
6
CONTINUOUS
62
7
370
0
100
AcDbLine
10
69.375
20
50
11
65.75
21
50
0
ENDBLK
5
5F
330
5D
100
AcDbEntity
8
0
100
AcDbBlockEnd
0
BLOCK
5
61
330
60
100
AcDbEntity
8
0
100
AcDbBlockBegin
2
*D1
70
1
10
0
20
0
3
*D1
1

0
LINE
5
9B
100
AcDbEntity
8
Maße
6
CONTINUOUS
62
7
370
0
100
AcDbLine
10
-10
20
0
11
-10
21
85
0
SOLID
5
9C
100
AcDbEntity
8
Maße
6
CONTINUOUS
62
7
370
0
100
AcDbTrace
10
-10
20
0
30
0
11
-10.4162846578
21
2.5
31
0
12
-9.58371534223
22
2.5
32
0
13
-9.58371534223
23
2.5
33
0
0
SOLID
5
9D
100
AcDbEntity
8
Maße
6
CONTINUOUS
62
7
370
0
100
AcDbTrace
10
-10
20
85
30
0
11
-9.58371534223
21
82.5
31
0
12
-10.4162846578
22
82.5
32
0
13
-10.4162846578
23
82.5
33
0
0
MTEXT
5
9E
100
AcDbEntity
8
Maße
6
CONTINUOUS
62
7
370
0
100
AcDbMText
10
-11.875
20
42.5
30
0
40
2.5
41
3.05555555556
71
5
72
1
1
85
7
standard
210
0
220
0
230
1
50
90
73
2
44
1
0
LINE
5
9F
100
AcDbEntity
8
Maße
6
CONTINUOUS
62
7
370
0
100
AcDbLine
10
-0.625
20
7.65378971139e-017
11
-11.25
21
1.53075794228e-016
0
LINE
5
A0
100
AcDbEntity
8
Maße
6
CONTINUOUS
62
7
370
0
100
AcDbLine
10
17.375
20
85
11
-11.25
21
85
0
ENDBLK
5
62
330
60
100
AcDbEntity
8
0
100
AcDbBlockEnd
0
BLOCK
5
64
330
63
100
AcDbEntity
8
0
100
AcDbBlockBegin
2
*D7
70
1
10
0
20
0
3
*D7
1

0
LINE
5
A1
100
AcDbEntity
8
Maße
6
CONTINUOUS
62
7
370
0
100
AcDbLine
10
70
20
40
11
118
21
40
0
SOLID
5
A2
100
AcDbEntity
8
Maße
6
CONTINUOUS
62
7
370
0
100
AcDbTrace
10
70
20
40
30
0
11
72.5
21
40.4162846578
31
0
12
72.5
22
39.5837153422
32
0
13
72.5
23
39.5837153422
33
0
0
SOLID
5
A3
100
AcDbEntity
8
Maße
6
CONTINUOUS
62
7
370
0
100
AcDbTrace
10
118
20
40
30
0
11
115.5
21
39.5837153422
31
0
12
115.5
22
40.4162846578
32
0
13
115.5
23
40.4162846578
33
0
0
MTEXT
5
A4
100
AcDbEntity
8
Maße
6
CONTINUOUS
62
7
370
0
100
AcDbMText
10
94
20
41.875
30
0
40
2.5
41
3.33333333333
71
5
72
1
1
48
7
standard
210
0
220
0
230
1
50
0
73
2
44
1
0
LINE
5
A5
100
AcDbEntity
8
Maße
6
CONTINUOUS
62
7
370
0
100
AcDbLine
10
70
20
36.625
11
70
21
41.25
0
LINE
5
A6
100
AcDbEntity
8
Maße
6
CONTINUOUS
62
7
370
0
100
AcDbLine
10
118
20
36.625
11
118
21
41.25
0
ENDBLK
5
65
330
63
100
AcDbEntity
8
0
100
AcDbBlockEnd
0
BLOCK
5
67
330
66
100
AcDbEntity
8
0
100
AcDbBlockBegin
2
*D8
70
1
10
0
20
0
3
*D8
1

0
LINE
5
A7
100
AcDbEntity
8
Maße
6
CONTINUOUS
62
7
370
0
100
AcDbLine
10
74.4
20
21
11
83.4
21
21
0
SOLID
5
A8
100
AcDbEntity
8
Maße
6
CONTINUOUS
62
7
370
0
100
AcDbTrace
10
74.4
20
21
30
0
11
76.9
21
21.4162846578
31
0
12
76.9
22
20.5837153422
32
0
13
76.9
23
20.5837153422
33
0
0
SOLID
5
A9
100
AcDbEntity
8
Maße
6
CONTINUOUS
62
7
370
0
100
AcDbTrace
10
83.4
20
21
30
0
11
80.9
21
20.5837153422
31
0
12
80.9
22
21.4162846578
32
0
13
80.9
23
21.4162846578
33
0
0
MTEXT
5
AA
100
AcDbEntity
8
Maße
6
CONTINUOUS
62
7
370
0
100
AcDbMText
10
78.9
20
22.875
30
0
40
2.5
41
1.11111111111
71
5
72
1
1
9
7
standard
210
0
220
0
230
1
50
0
73
2
44
1
0
LINE
5
AB
100
AcDbEntity
8
Maße
6
CONTINUOUS
62
7
370
0
100
AcDbLine
10
74.4
20
18.625
11
74.4
21
22.25
0
LINE
5
AC
100
AcDbEntity
8
Maße
6
CONTINUOUS
62
7
370
0
100
AcDbLine
10
83.4
20
18.625
11
83.4
21
22.25
0
ENDBLK
5
68
330
66
100
AcDbEntity
8
0
100
AcDbBlockEnd
0
BLOCK
5
6A
330
69
100
AcDbEntity
8
0
100
AcDbBlockBegin
2
*D5
70
1
10
0
20
0
3
*D5
1

0
LINE
5
AD
100
AcDbEntity
8
Maße
6
CONTINUOUS
62
7
370
0
100
AcDbLine
10
54
20
38
11
54
21
25
0
SOLID
5
AE
100
AcDbEntity
8
Maße
6
CONTINUOUS
62
7
370
0
100
AcDbTrace
10
54
20
33
30
0
11
53.5837153422
21
35.5
31
0
12
54.4162846578
22
35.5
32
0
13
54.4162846578
23
35.5
33
0
0
SOLID
5
AF
100
AcDbEntity
8
Maße
6
CONTINUOUS
62
7
370
0
100
AcDbTrace
10
54
20
30
30
0
11
54.4162846578
21
27.5
31
0
12
53.5837153422
22
27.5
32
0
13
53.5837153422
23
27.5
33
0
0
MTEXT
5
B0
100
AcDbEntity
8
Maße
6
CONTINUOUS
62
7
370
0
100
AcDbMText
10
52.125
20
31.5
30
0
40
2.5
41
1.11111111111
71
5
72
1
1
3
7
standard
210
0
220
0
230
1
50
90
73
2
44
1
0
LINE
5
B1
100
AcDbEntity
8
Maße
6
CONTINUOUS
62
7
370
0
100
AcDbLine
10
45.625
20
33
11
55.25
21
33
0
LINE
5
B2
100
AcDbEntity
8
Maße
6
CONTINUOUS
62
7
370
0
100
AcDbLine
10
45.625
20
30
11
55.25
21
30
0
ENDBLK
5
6B
330
69
100
AcDbEntity
8
0
100
AcDbBlockEnd
0
BLOCK
5
6D
330
6C
100
AcDbEntity
8
0
100
AcDbBlockBegin
2
*D11
70
1
10
0
20
0
3
*D11
1

0
SOLID
5
B3
100
AcDbEntity
8
Maße
6
CONTINUOUS
62
7
370
0
100
AcDbTrace
10
7.39759650978
20
78.7887496915
30
0
11
9.55945675181
21
77.4660051167
31
0
12
9.01418168171
22
76.8368415742
32
0
13
9.01418168171
23
76.8368415742
33
0
0
LINE
5
B4
100
AcDbEntity
8
Maße
6
CONTINUOUS
62
7
370
0
100
AcDbLine
10
21
20
67
11
7.39759650978
21
78.7887496915
0
MTEXT
5
B5
100
AcDbEntity
8
Maße
6
CONTINUOUS
62
7
370
0
100
AcDbMText
10
15.4267930144
20
74.311291876
30
0
40
2.5
41
2.5
71
5
72
1
1
18
7
standard
210
0
220
0
230
1
50
319.08561678
73
2
44
1
0
ENDBLK
5
6E
330
6C
100
AcDbEntity
8
0
100
AcDbBlockEnd
0
BLOCK
5
70
330
6F
100
AcDbEntity
8
0
100
AcDbBlockBegin
2
*D14
70
1
10
0
20
0
3
*D14
1

0
LINE
5
B6
100
AcDbEntity
8
Maße
6
CONTINUOUS
62
7
370
0
100
AcDbLine
10
3
20
88
11
48
21
88
0
SOLID
5
B7
100
AcDbEntity
8
Maße
6
CONTINUOUS
62
7
370
0
100
AcDbTrace
10
3
20
88
30
0
11
5.5
21
88.4162846578
31
0
12
5.5
22
87.5837153422
32
0
13
5.5
23
87.5837153422
33
0
0
SOLID
5
B8
100
AcDbEntity
8
Maße
6
CONTINUOUS
62
7
370
0
100
AcDbTrace
10
48
20
88
30
0
11
45.5
21
87.5837153422
31
0
12
45.5
22
88.4162846578
32
0
13
45.5
23
88.4162846578
33
0
0
MTEXT
5
B9
100
AcDbEntity
8
Maße
6
CONTINUOUS
62
7
370
0
100
AcDbMText
10
25.5
20
89.875
30
0
40
2.5
41
3.33333333333
71
5
72
1
1
45
7
standard
210
0
220
0
230
1
50
0
73
2
44
1
0
LINE
5
BA
100
AcDbEntity
8
Maße
6
CONTINUOUS
62
7
370
0
100
AcDbLine
10
3
20
67.625
11
3
21
89.25
0
LINE
5
BB
100
AcDbEntity
8
Maße
6
CONTINUOUS
62
7
370
0
100
AcDbLine
10
48
20
67.625
11
48
21
89.25
0
ENDBLK
5
71
330
6F
100
AcDbEntity
8
0
100
AcDbBlockEnd
0
ENDSEC
0
SECTION
2
ENTITIES
0
LINE
5
BC
100
AcDbEntity
8
0
6
ByLayer
62
256
370
-1
100
AcDbLine
10
0
20
0
11
48
21
0
0
CIRCLE
5
BD
100
AcDbEntity
8
0
6
ByLayer
62
256
370
-1
100
AcDbCircle
10
28
20
75
40
3
0
CIRCLE
5
BE
100
AcDbEntity
8
0
6
ByLayer
62
256
370
-1
100
AcDbCircle
10
29
20
18
40
3
0
CIRCLE
5
BF
100
AcDbEntity
8
0
6
ByLayer
62
256
370
-1
100
AcDbCircle
10
29
20
18
40
7.5
0
CIRCLE
5
C0
100
AcDbEntity
8
0
6
ByLayer
62
256
370
-1
100
AcDbCircle
10
28
20
75
40
7.5
0
LINE
5
C1
100
AcDbEntity
8
0
6
ByLayer
62
256
370
-1
100
AcDbLine
10
3
20
3
11
13
21
3
0
LINE
5
C2
100
AcDbEntity
8
0
6
ByLayer
62
256
370
-1
100
AcDbLine
10
13
20
3
11
13
21
6
0
LINE
5
C3
100
AcDbEntity
8
0
6
ByLayer
62
256
370
-1
100
AcDbLine
10
13
20
6
11
3
21
6
0
LINE
5
C4
100
AcDbEntity
8
0
6
ByLayer
62
256
370
-1
100
AcDbLine
10
3
20
6
11
3
21
3
0
LINE
5
C5
100
AcDbEntity
8
0
6
ByLayer
62
256
370
-1
100
AcDbLine
10
45
20
3
11
35
21
3
0
LINE
5
C6
100
AcDbEntity
8
0
6
ByLayer
62
256
370
-1
100
AcDbLine
10
35
20
3
11
35
21
6
0
LINE
5
C7
100
AcDbEntity
8
0
6
ByLayer
62
256
370
-1
100
AcDbLine
10
35
20
6
11
45
21
6
0
LINE
5
C8
100
AcDbEntity
8
0
6
ByLayer
62
256
370
-1
100
AcDbLine
10
45
20
6
11
45
21
3
0
LINE
5
C9
100
AcDbEntity
8
0
6
ByLayer
62
256
370
-1
100
AcDbLine
10
19
20
3
11
29
21
3
0
LINE
5
CA
100
AcDbEntity
8
0
6
ByLayer
62
256
370
-1
100
AcDbLine
10
29
20
3
11
29
21
6
0
LINE
5
CB
100
AcDbEntity
8
0
6
ByLayer
62
256
370
-1
100
AcDbLine
10
29
20
6
11
19
21
6
0
LINE
5
CC
100
AcDbEntity
8
0
6
ByLayer
62
256
370
-1
100
AcDbLine
10
19
20
6
11
19
21
3
0
LINE
5
CD
100
AcDbEntity
8
0
6
ByLayer
62
256
370
-1
100
AcDbLine
10
3
20
30
11
13
21
30
0
LINE
5
CE
100
AcDbEntity
8
0
6
ByLayer
62
256
370
-1
100
AcDbLine
10
13
20
30
11
13
21
33
0
LINE
5
CF
100
AcDbEntity
8
0
6
ByLayer
62
256
370
-1
100
AcDbLine
10
13
20
33
11
3
21
33
0
LINE
5
D0
100
AcDbEntity
8
0
6
ByLayer
62
256
370
-1
100
AcDbLine
10
3
20
33
11
3
21
30
0
LINE
5
D1
100
AcDbEntity
8
0
6
ByLayer
62
256
370
-1
100
AcDbLine
10
19
20
30
11
29
21
30
0
LINE
5
D2
100
AcDbEntity
8
0
6
ByLayer
62
256
370
-1
100
AcDbLine
10
29
20
30
11
29
21
33
0
LINE
5
D3
100
AcDbEntity
8
0
6
ByLayer
62
256
370
-1
100
AcDbLine
10
29
20
33
11
19
21
33
0
LINE
5
D4
100
AcDbEntity
8
0
6
ByLayer
62
256
370
-1
100
AcDbLine
10
19
20
33
11
19
21
30
0
LINE
5
D5
100
AcDbEntity
8
0
6
ByLayer
62
256
370
-1
100
AcDbLine
10
35
20
30
11
45
21
30
0
LINE
5
D6
100
AcDbEntity
8
0
6
ByLayer
62
256
370
-1
100
AcDbLine
10
45
20
30
11
45
21
33
0
LINE
5
D7
100
AcDbEntity
8
0
6
ByLayer
62
256
370
-1
100
AcDbLine
10
45
20
33
11
35
21
33
0
LINE
5
D8
100
AcDbEntity
8
0
6
ByLayer
62
256
370
-1
100
AcDbLine
10
35
20
33
11
35
21
30
0
ARC
5
D9
100
AcDbEntity
8
0
6
ByLayer
62
256
370
-1
100
AcDbCircle
10
1.5
20
51.5
40
1.5
100
AcDbArc
50
270
51
0
0
LINE
5
DA
100
AcDbEntity
8
0
6
ByLayer
62
256
370
-1
100
AcDbLine
10
1.5
20
50
11
1.5
21
50
0
LINE
5
DB
100
AcDbEntity
8
0
6
ByLayer
62
256
370
-1
100
AcDbLine
10
0
20
48.5
11
0
21
0
0
ARC
5
DC
100
AcDbEntity
8
0
6
ByLayer
62
256
370
-1
100
AcDbCircle
10
1.5
20
48.5
40
1.5
100
AcDbArc
50
90
51
180
0
DIMENSION
5
DD
100
AcDbEntity
8
Maße
6
ByLayer
62
256
370
-1
100
AcDbDimension
2
*D1
10
-10
20
85
30
0
11
-11.875
21
42.5
31
0
70
32
71
5
72
0
3
Standard
53
0
210
0
220
0
230
1
100
AcDbAlignedDimension
13
0
23
0
33
0
14
18
24
85
34
0
50
90
100
AcDbRotatedDimension
0
DIMENSION
5
DE
100
AcDbEntity
8
Maße
6
ByLayer
62
256
370
-1
100
AcDbDimension
2
*D2
10
30.3046638388
20
76.920553199
30
0
11
26.7996542506
21
76.4404148992
31
0
70
35
71
5
72
0
3
Standard
53
0
210
0
220
0
230
1
100
AcDbDiametricDimension
15
25.6953361612
25
73.079446801
35
0
40
0
0
DIMENSION
5
DF
100
AcDbEntity
8
Maße
6
ByLayer
62
256
370
-1
100
AcDbDimension
2
*D3
10
23.564729395
20
12.8320377855
30
0
11
27.7080094464
21
19.3588176512
31
0
70
35
71
5
72
0
3
Standard
53
0
210
0
220
0
230
1
100
AcDbDiametricDimension
15
34.435270605
25
23.1679622145
35
0
40
0
0
DIMENSION
5
E0
100
AcDbEntity
8
Maße
6
ByLayer
62
256
370
-1
100
AcDbDimension
2
*D4
10
13
20
36
30
0
11
8
21
37.875
31
0
70
32
71
5
72
0
3
Standard
53
0
210
0
220
0
230
1
100
AcDbAlignedDimension
13
3
23
33
33
0
14
13
24
33
34
0
100
AcDbRotatedDimension
0
DIMENSION
5
E1
100
AcDbEntity
8
Maße
6
ByLayer
62
256
370
-1
100
AcDbDimension
2
*D5
10
54
20
30
30
0
11
52.125
21
31.5
31
0
70
32
71
5
72
0
3
Standard
53
0
210
0
220
0
230
1
100
AcDbAlignedDimension
13
45
23
33
33
0
14
45
24
30
34
0
50
90
100
AcDbRotatedDimension
0
LINE
5
E2
100
AcDbEntity
8
0
6
ByLayer
62
256
370
-1
100
AcDbLine
10
70
20
0
11
118
21
0
0
LINE
5
E3
100
AcDbEntity
8
0
6
ByLayer
62
256
370
-1
100
AcDbLine
10
118
20
0
11
118
21
36
0
LINE
5
E4
100
AcDbEntity
8
0
6
ByLayer
62
256
370
-1
100
AcDbLine
10
118
20
36
11
70
21
36
0
LINE
5
E5
100
AcDbEntity
8
0
6
ByLayer
62
256
370
-1
100
AcDbLine
10
70
20
36
11
70
21
0
0
LINE
5
E6
100
AcDbEntity
8
0
6
ByLayer
62
256
370
-1
100
AcDbLine
10
73
20
3
11
83
21
3
0
LINE
5
E7
100
AcDbEntity
8
0
6
ByLayer
62
256
370
-1
100
AcDbLine
10
83
20
3
11
83
21
6
0
LINE
5
E8
100
AcDbEntity
8
0
6
ByLayer
62
256
370
-1
100
AcDbLine
10
83
20
6
11
73
21
6
0
LINE
5
E9
100
AcDbEntity
8
0
6
ByLayer
62
256
370
-1
100
AcDbLine
10
73
20
6
11
73
21
3
0
LINE
5
EA
100
AcDbEntity
8
0
6
ByLayer
62
256
370
-1
100
AcDbLine
10
73
20
30
11
83
21
30
0
LINE
5
EB
100
AcDbEntity
8
0
6
ByLayer
62
256
370
-1
100
AcDbLine
10
83
20
30
11
83
21
33
0
LINE
5
EC
100
AcDbEntity
8
0
6
ByLayer
62
256
370
-1
100
AcDbLine
10
83
20
33
11
73
21
33
0
LINE
5
ED
100
AcDbEntity
8
0
6
ByLayer
62
256
370
-1
100
AcDbLine
10
73
20
33
11
73
21
30
0
LINE
5
EE
100
AcDbEntity
8
0
6
ByLayer
62
256
370
-1
100
AcDbLine
10
115
20
3
11
105
21
3
0
LINE
5
EF
100
AcDbEntity
8
0
6
ByLayer
62
256
370
-1
100
AcDbLine
10
105
20
3
11
105
21
6
0
LINE
5
F0
100
AcDbEntity
8
0
6
ByLayer
62
256
370
-1
100
AcDbLine
10
105
20
6
11
115
21
6
0
LINE
5
F1
100
AcDbEntity
8
0
6
ByLayer
62
256
370
-1
100
AcDbLine
10
115
20
6
11
115
21
3
0
LINE
5
F2
100
AcDbEntity
8
0
6
ByLayer
62
256
370
-1
100
AcDbLine
10
115
20
33
11
105
21
33
0
LINE
5
F3
100
AcDbEntity
8
0
6
ByLayer
62
256
370
-1
100
AcDbLine
10
105
20
33
11
105
21
30
0
LINE
5
F4
100
AcDbEntity
8
0
6
ByLayer
62
256
370
-1
100
AcDbLine
10
105
20
30
11
115
21
30
0
LINE
5
F5
100
AcDbEntity
8
0
6
ByLayer
62
256
370
-1
100
AcDbLine
10
115
20
30
11
115
21
33
0
LINE
5
F6
100
AcDbEntity
8
0
6
ByLayer
62
256
370
-1
100
AcDbLine
10
89
20
30
11
99
21
30
0
LINE
5
F7
100
AcDbEntity
8
0
6
ByLayer
62
256
370
-1
100
AcDbLine
10
99
20
30
11
99
21
33
0
LINE
5
F8
100
AcDbEntity
8
0
6
ByLayer
62
256
370
-1
100
AcDbLine
10
99
20
33
11
89
21
33
0
LINE
5
F9
100
AcDbEntity
8
0
6
ByLayer
62
256
370
-1
100
AcDbLine
10
89
20
33
11
89
21
30
0
LINE
5
FA
100
AcDbEntity
8
0
6
ByLayer
62
256
370
-1
100
AcDbLine
10
89
20
3
11
99
21
3
0
LINE
5
FB
100
AcDbEntity
8
0
6
ByLayer
62
256
370
-1
100
AcDbLine
10
99
20
3
11
99
21
6
0
LINE
5
FC
100
AcDbEntity
8
0
6
ByLayer
62
256
370
-1
100
AcDbLine
10
99
20
6
11
89
21
6
0
LINE
5
FD
100
AcDbEntity
8
0
6
ByLayer
62
256
370
-1
100
AcDbLine
10
89
20
6
11
89
21
3
0
LINE
5
FE
100
AcDbEntity
8
0
6
ByLayer
62
256
370
-1
100
AcDbLine
10
74.5
20
19.5
11
83.5
21
19.5
0
LINE
5
FF
100
AcDbEntity
8
0
6
ByLayer
62
256
370
-1
100
AcDbLine
10
74.5
20
16.5
11
83.5
21
16.5
0
ARC
5
100
100
AcDbEntity
8
0
6
ByLayer
62
256
370
-1
100
AcDbCircle
10
83.5
20
18
40
1.5
100
AcDbArc
50
270
51
90
0
ARC
5
101
100
AcDbEntity
8
0
6
ByLayer
62
256
370
-1
100
AcDbCircle
10
74.5
20
18
40
1.5
100
AcDbArc
50
90
51
270
0
LINE
5
102
100
AcDbEntity
8
0
6
ByLayer
62
256
370
-1
100
AcDbLine
10
113.5
20
16.5
11
104.5
21
16.5
0
LINE
5
103
100
AcDbEntity
8
0
6
ByLayer
62
256
370
-1
100
AcDbLine
10
104.5
20
19.5
11
113.5
21
19.5
0
ARC
5
104
100
AcDbEntity
8
0
6
ByLayer
62
256
370
-1
100
AcDbCircle
10
113.5
20
18
40
1.5
100
AcDbArc
50
270
51
90
0
ARC
5
105
100
AcDbEntity
8
0
6
ByLayer
62
256
370
-1
100
AcDbCircle
10
104.5
20
18
40
1.5
100
AcDbArc
50
90
51
270
0
DIMENSION
5
106
100
AcDbEntity
8
Maße
6
ByLayer
62
256
370
-1
100
AcDbDimension
2
*D6
10
65
20
6.12303176911e-016
30
0
11
63.125
21
18
31
0
70
32
71
5
3
Standard
53
0
210
0
220
0
230
1
100
AcDbAlignedDimension
13
70
23
36
33
0
14
70
24
0
34
0
50
90
100
AcDbRotatedDimension
0
DIMENSION
5
107
100
AcDbEntity
8
Maße
6
ByLayer
62
256
370
-1
100
AcDbDimension
2
*D7
10
118
20
40
30
0
11
94
21
41.875
31
0
70
32
71
5
3
Standard
53
0
210
0
220
0
230
1
100
AcDbAlignedDimension
13
70
23
36
33
0
14
118
24
36
34
0
100
AcDbRotatedDimension
0
DIMENSION
5
108
100
AcDbEntity
8
Maße
6
ByLayer
62
256
370
-1
100
AcDbDimension
2
*D8
10
83.4
20
21
30
0
11
78.9
21
22.875
31
0
70
32
71
5
3
Standard
53
0
210
0
220
0
230
1
100
AcDbAlignedDimension
13
74.4
23
18
33
0
14
83.4
24
18
34
0
100
AcDbRotatedDimension
0
LINE
5
109
100
AcDbEntity
8
0
6
ByLayer
62
256
370
-1
100
AcDbLine
10
70
20
50
11
73
21
50
0
LINE
5
10A
100
AcDbEntity
8
0
6
ByLayer
62
256
370
-1
100
AcDbLine
10
73
20
50
11
73
21
48
0
LINE
5
10B
100
AcDbEntity
8
0
6
ByLayer
62
256
370
-1
100
AcDbLine
10
73
20
48
11
83
21
48
0
LINE
5
10C
100
AcDbEntity
8
0
6
ByLayer
62
256
370
-1
100
AcDbLine
10
83
20
48
11
83
21
50
0
LINE
5
10D
100
AcDbEntity
8
0
6
ByLayer
62
256
370
-1
100
AcDbLine
10
83
20
50
11
89
21
50
0
LINE
5
10E
100
AcDbEntity
8
0
6
ByLayer
62
256
370
-1
100
AcDbLine
10
89
20
50
11
89
21
48
0
LINE
5
10F
100
AcDbEntity
8
0
6
ByLayer
62
256
370
-1
100
AcDbLine
10
89
20
48
11
99
21
48
0
LINE
5
110
100
AcDbEntity
8
0
6
ByLayer
62
256
370
-1
100
AcDbLine
10
99
20
48
11
99
21
50
0
LINE
5
111
100
AcDbEntity
8
0
6
ByLayer
62
256
370
-1
100
AcDbLine
10
99
20
50
11
105
21
50
0
LINE
5
112
100
AcDbEntity
8
0
6
ByLayer
62
256
370
-1
100
AcDbLine
10
105
20
50
11
105
21
48
0
LINE
5
113
100
AcDbEntity
8
0
6
ByLayer
62
256
370
-1
100
AcDbLine
10
105
20
48
11
115
21
48
0
LINE
5
114
100
AcDbEntity
8
0
6
ByLayer
62
256
370
-1
100
AcDbLine
10
115
20
48
11
115
21
50
0
LINE
5
115
100
AcDbEntity
8
0
6
ByLayer
62
256
370
-1
100
AcDbLine
10
115
20
50
11
118
21
50
0
LINE
5
116
100
AcDbEntity
8
0
6
ByLayer
62
256
370
-1
100
AcDbLine
10
118
20
50
11
118
21
68
0
LINE
5
117
100
AcDbEntity
8
0
6
ByLayer
62
256
370
-1
100
AcDbLine
10
118
20
68
11
115
21
68
0
LINE
5
118
100
AcDbEntity
8
0
6
ByLayer
62
256
370
-1
100
AcDbLine
10
115
20
68
11
115
21
70
0
LINE
5
119
100
AcDbEntity
8
0
6
ByLayer
62
256
370
-1
100
AcDbLine
10
115
20
70
11
105
21
70
0
LINE
5
11A
100
AcDbEntity
8
0
6
ByLayer
62
256
370
-1
100
AcDbLine
10
105
20
70
11
105
21
68
0
LINE
5
11B
100
AcDbEntity
8
0
6
ByLayer
62
256
370
-1
100
AcDbLine
10
105
20
68
11
99
21
68
0
LINE
5
11C
100
AcDbEntity
8
0
6
ByLayer
62
256
370
-1
100
AcDbLine
10
99
20
68
11
99
21
70
0
LINE
5
11D
100
AcDbEntity
8
0
6
ByLayer
62
256
370
-1
100
AcDbLine
10
99
20
70
11
89
21
70
0
LINE
5
11E
100
AcDbEntity
8
0
6
ByLayer
62
256
370
-1
100
AcDbLine
10
89
20
70
11
89
21
68
0
LINE
5
11F
100
AcDbEntity
8
0
6
ByLayer
62
256
370
-1
100
AcDbLine
10
89
20
68
11
83
21
68
0
LINE
5
120
100
AcDbEntity
8
0
6
ByLayer
62
256
370
-1
100
AcDbLine
10
83
20
68
11
83
21
70
0
LINE
5
121
100
AcDbEntity
8
0
6
ByLayer
62
256
370
-1
100
AcDbLine
10
83
20
70
11
73
21
70
0
LINE
5
122
100
AcDbEntity
8
0
6
ByLayer
62
256
370
-1
100
AcDbLine
10
73
20
70
11
73
21
68
0
LINE
5
123
100
AcDbEntity
8
0
6
ByLayer
62
256
370
-1
100
AcDbLine
10
73
20
68
11
70
21
68
0
LINE
5
124
100
AcDbEntity
8
0
6
ByLayer
62
256
370
-1
100
AcDbLine
10
70
20
68
11
70
21
50
0
DIMENSION
5
125
100
AcDbEntity
8
Maße
6
ByLayer
62
256
370
-1
100
AcDbDimension
2
*D9
10
67
20
50
30
0
11
65.125
21
59
31
0
70
32
71
5
3
Standard
53
0
210
0
220
0
230
1
100
AcDbAlignedDimension
13
70
23
68
33
0
14
70
24
50
34
0
50
90
100
AcDbRotatedDimension
0
DIMENSION
5
126
100
AcDbEntity
8
Maße
6
ByLayer
62
256
370
-1
100
AcDbDimension
2
*D10
10
122
20
48
30
0
11
120.125
21
59
31
0
70
32
71
5
3
Standard
53
0
210
0
220
0
230
1
100
AcDbAlignedDimension
13
115
23
70
33
0
14
115
24
48
34
0
50
90
100
AcDbRotatedDimension
0
LINE
5
127
100
AcDbEntity
8
0
6
ByLayer
62
256
370
-1
100
AcDbLine
10
3
20
67
11
3
21
51.5
0
ARC
5
128
100
AcDbEntity
8
0
6
ByLayer
62
256
370
-1
100
AcDbCircle
10
21
20
67
40
18
100
AcDbArc
50
90
51
180
0
LINE
5
129
100
AcDbEntity
8
0
6
ByLayer
62
256
370
-1
100
AcDbLine
10
36
20
85
11
21
21
85
0
ARC
5
12A
100
AcDbEntity
8
0
6
ByLayer
62
256
370
-1
100
AcDbCircle
10
36
20
73
40
12
100
AcDbArc
50
0
51
90
0
LINE
5
12B
100
AcDbEntity
8
0
6
ByLayer
62
256
370
-1
100
AcDbLine
10
3
20
51.5
11
3
21
0
0
LINE
5
12C
100
AcDbEntity
8
0
6
ByLayer
62
256
370
-1
100
AcDbLine
10
48
20
0
11
51
21
0
0
LINE
5
12D
100
AcDbEntity
8
0
6
ByLayer
62
256
370
-1
100
AcDbLine
10
51
20
0
11
51
21
48.5
0
ARC
5
12E
100
AcDbEntity
8
0
6
ByLayer
62
256
370
-1
100
AcDbCircle
10
49.5
20
48.5
40
1.5
100
AcDbArc
50
0
51
90
0
LINE
5
12F
100
AcDbEntity
8
0
6
ByLayer
62
256
370
-1
100
AcDbLine
10
48
20
51.5
11
48
21
73
0
ARC
5
130
100
AcDbEntity
8
0
6
ByLayer
62
256
370
-1
100
AcDbCircle
10
49.5
20
51.5
40
1.5
100
AcDbArc
50
180
51
270
0
LINE
5
131
100
AcDbEntity
8
0
6
ByLayer
62
256
370
-1
100
AcDbLine
10
48
20
51.5
11
48
21
0
0
DIMENSION
5
132
100
AcDbEntity
8
Maße
6
ByLayer
62
256
370
-1
100
AcDbDimension
2
*D11
10
21
20
67
30
0
11
15.4267930144
21
74.311291876
31
0
70
36
71
5
72
0
3
Standard
53
0
210
0
220
0
230
1
100
AcDbRadialDimension
15
7.39759650978
25
78.7887496915
35
0
40
0
0
DIMENSION
5
133
100
AcDbEntity
8
Maße
6
ByLayer
62
256
370
-1
100
AcDbDimension
2
*D12
10
36
20
73
30
0
11
39.2387737143
21
78.3875755055
31
0
70
36
71
5
72
0
3
Standard
53
0
210
0
220
0
230
1
100
AcDbRadialDimension
15
44.9689118242
25
80.972366066
35
0
40
0
0
MTEXT
5
134
100
AcDbEntity
8
Beschriftung
6
ByLayer
62
256
370
-1
100
AcDbMText
10
3
20
-9
30
0
40
2
41
18.6111111111
71
1
72
1
1
1 Portalplatte
7
standard
210
0
220
0
230
1
50
0
73
2
44
1
0
MTEXT
5
135
100
AcDbEntity
8
Beschriftung
6
ByLayer
62
256
370
-1
100
AcDbMText
10
73
20
75
30
0
40
2
41
29.6666685016
71
1
72
1
1
2 Abstandsplatte (2x)
7
standard
210
0
220
0
230
1
50
0
73
2
44
1
0
MTEXT
5
136
100
AcDbEntity
8
Beschriftung
6
ByLayer
62
256
370
-1
100
AcDbMText
10
73
20
-9
30
0
40
2
41
23.444445473
71
1
72
1
1
3 Justierplatte Y
7
standard
210
0
220
0
230
1
50
0
73
2
44
1
0
DIMENSION
5
137
100
AcDbEntity
8
Maße
6
ByLayer
62
256
370
-1
100
AcDbDimension
2
*D13
10
51
20
-6
30
0
11
25.5
21
-4.125
31
0
70
32
71
5
3
Standard
53
0
210
0
220
0
230
1
100
AcDbAlignedDimension
13
0
23
0
33
0
14
51
24
0
34
0
100
AcDbRotatedDimension
0
DIMENSION
5
138
100
AcDbEntity
8
Maße
6
ByLayer
62
256
370
-1
100
AcDbDimension
2
*D14
10
48
20
88
30
0
11
25.5
21
89.875
31
0
70
32
71
5
3
Standard
53
0
210
0
220
0
230
1
100
AcDbAlignedDimension
13
3
23
67
33
0
14
48
24
67
34
0
100
AcDbRotatedDimension
0
MTEXT
5
139
100
AcDbEntity
8
Beschriftung
6
ByLayer
62
256
370
-1
100
AcDbMText
10
8
20
-13
30
0
40
1
41
37.8055569873
71
1
72
1
1
Innenkontur (45x85) als 1mm Tasche auf der Rückseite\P15mm Kreistasche mit 1mm Tiefe\P10x3 Taschen mit 2mm Tiefe
7
standard
210
0
220
0
230
1
50
0
73
2
44
1
0
MTEXT
5
13A
100
AcDbEntity
8
Beschriftung
6
ByLayer
62
256
370
-1
100
AcDbMText
10
78
20
-13
30
0
40
1
41
20.4444449587
71
1
72
1
1
10x3mm Tasche mit 2mm Tiefe
7
standard
210
0
220
0
230
1
50
0
73
2
44
1
0
ENDSEC
0
SECTION
2
OBJECTS
0
DICTIONARY
5
C
330
0
100
AcDbDictionary
281
1
3
ACAD_GROUP
350
D
0
DICTIONARY
5
D
330
C
100
AcDbDictionary
281
1
0
ENDSEC
0
EOF
